Category Archives: Anime / Hentai

[bonkai77].Clockwork.Planet.Episode.06.Deep.Underground.1080p.Dua… torrent

Description

File Container: MKV
Video Format: h.265/HEVC [10-bit]
Video Resolution: 1920×1080
Aspect Ratio: 16.9

Audio Type: Mixed
Track 1: English (2.0 Stereo) (default)
Track 2: Japanese (2.0 Stereo)

Audio Format: AAC-HE

Subtitles: (ASS)
Track 1: English Signs & Songs
Track 2: English Subs [DameDesuYo/CR modified]

Video Source: [LostYears]

Download torrent

American.Grit.S02E04.HDTV.x264-W4F[ettv] torrent

Description

Et TV Shows

American.Grit.S02E04.HDTV.x264-W4F

[Format]: Matroska
[Duration]: 42mn 7s
[Resolution]: 720 x 404 pixels
[Display aspect ratio]: 16:9
[Frame rate mode]: Constant
[Frame rate]: 23.976 fps

#ettv -> To avoid fakes, ALWAYS check that the torrent was added by ettv

To keep us going Support us by donating Bitcoin: 1MbtePmWNM13SEkQgmxF6RSvfaXugF7rpz

Screens…

https://extraimage.net/image/Npq0




Download torrent

[bonkai77].Clockwork.Planet.Episode.03.Conflict.1080p.Dual.Audio…. torrent

Description

File Container: MKV
Video Format: h.265/HEVC [10-bit]
Video Resolution: 1920×1080
Aspect Ratio: 16.9

Audio Type: Mixed
Track 1: English (2.0 Stereo) (default)
Track 2: Japanese (2.0 Stereo)

Audio Format: AAC-HE

Subtitles: (ASS)
Track 1: English Signs & Songs
Track 2: English Subs [DameDesuYo/CR modified]

Video Source: [LostYears]

Download torrent

[bonkai77].Clockwork.Planet.Episode.04.Imaginary.Gear.1080p.Dual…. torrent

Description

File Container: MKV
Video Format: h.265/HEVC [10-bit]
Video Resolution: 1920×1080
Aspect Ratio: 16.9

Audio Type: Mixed
Track 1: English (2.0 Stereo) (default)
Track 2: Japanese (2.0 Stereo)

Audio Format: AAC-HE

Subtitles: (ASS)
Track 1: English Signs & Songs
Track 2: English Subs [DameDesuYo/CR modified]

Video Source: [LostYears]

Download torrent

[bonkai77].Clockwork.Planet.Episode.05.Trishula.One.Who.Annihilat… torrent

Description

File Container: MKV
Video Format: h.265/HEVC [10-bit]
Video Resolution: 1920×1080
Aspect Ratio: 16.9

Audio Type: Mixed
Track 1: English (2.0 Stereo) (default)
Track 2: Japanese (2.0 Stereo)

Audio Format: AAC-HE

Subtitles: (ASS)
Track 1: English Signs & Songs
Track 2: English Subs [DameDesuYo/CR modified]

Video Source: [LostYears]

Download torrent

[bonkai77].Clockwork.Planet.Episode.07.Attack.the.Multiple.Grid.1… torrent

Description

File Container: MKV
Video Format: h.265/HEVC [10-bit]
Video Resolution: 1920×1080
Aspect Ratio: 16.9

Audio Type: Mixed
Track 1: English (2.0 Stereo) (default)
Track 2: Japanese (2.0 Stereo)

Audio Format: AAC-HE

Subtitles: (ASS)
Track 1: English Signs & Songs
Track 2: English Subs [DameDesuYo/CR modified]

Video Source: [LostYears]

Download torrent

[Cleo] Owari no Seraph: Nagoya Kessen-hen | Seraph of the End: Ba… torrent

Description

AFTER DOWNLOADING DON’T FORGET TO SEED

Direct Download Links Available @ http://cleoencodes.blogspot.com

Source: Dragon-Releases

Alternative Titles
English: Seraph of the End: Battle in Nagoya
Synonyms: Owari no Seraph 2nd Season, Seraph of the End 2nd Season
Japanese: 終わりのセラフ 名古屋決戦編

Information
Type: TV
Episodes: 12
Status: Finished Airing
Aired: Oct 10, 2015 to Dec 26, 2015
Premiered: Fall 2015
Broadcast: Saturdays at 22:00 (JST)
Producers: NBCUniversal Entertainment Japan, Shueisha
Licensors: FUNimation Entertainment
Studios: Wit Studio
Source: Manga
Genres: Action, Supernatural, Drama, Vampire, Shounen
Duration: 23 min. per ep.
Rating: R – 17+ (violence & profanity)

Synopsis
Yuuichirou Hyakuya is finally reunited with his childhood friend Mikaela Hyakuya, whom he had long presumed to be dead. Upon their reunion, however, he discovers that Mikaela has been turned into a vampire. Determined to help his friend, Yuuichirou vows to get stronger so that he can protect Mikaela as well as the comrades in the Moon Demon Company.

Kureto Hiiragi receives information that a large group of vampires will be gathering in Nagoya, preparing for their assault on the Imperial Demon Army’s main forces in Tokyo. Led by Guren Ichinose, Yuuichirou’s team is one of many selected to intercept and eliminate the vampire nobles.

With the Nagoya mission quickly approaching, the members of Shinoa squad continue to work towards fully mastering their weapons, while learning how to improve their teamwork. Yuuichirou must gain the power he needs to slay the nobles and save his best friend, before he succumbs to the demon of the Cursed Gear.

Download torrent

[ALS]_K-ON!_11_[720p].mkv torrent

Description


http://alsubs.net/

Download torrent

Code Geass: Akito the Exiled 2 [EngDub] Download torrent

Description

Code Geass: Akito the Exiled 2: The Torn-Up Wyvern [EngDub] x264 Download

Quote:
The war between Euro Britannia and the European Union continues. New orders are given to the W-0 Unit. To land in the middle of the enemy territory as a diversion. The pilots of the W-0 Unit consist only of the commanding officer, Leila, the only surviving Japanese from their last battle, Akito, and the three that escaped from the Eleven ghettos and lived in the underworld, Ryou, Yukiya, and Ayano. With everyone holding their respective expectations, the operation moves forward. On the other side in Euro Britannia, Shin, who made his benefactor commit suicide with the mysterious power of “Geass”, is appointed the leader of the Knights of St. Michael. As Shin steadily advances for the sake of his own ambition, he and his subordinates in the Ashura squad are given orders to deploy. The one that lives in order to fight, and the one that fights in order to live.

..::File Specs::..
General

Format : Matroska
Format version : Version 4 / Version 2
File size : 712 MiB
Duration : 59 min 57 s
Overall bit rate : 1 660 kb/s

Video
ID : 1
Format : AVC
Format/Info : Advanced Video Codec
Format profile : [email protected]/* */
Format settings, CABAC : Yes
Format settings, ReFrames : 1 frame
Codec ID : V_MPEG4/ISO/AVC
Duration : 59 min 57 s
Bit rate : 1 466 kb/s
Width : 1 280 pixels
Height : 720 pixels
Display aspect ratio : 16:9
Frame rate mode : Constant
Frame rate : 23.976 (24000/1001) FPS
Color space : YUV
Chroma subsampling : 4:2:0
Bit depth : 8 bits
Scan type : Progressive
Bits/(Pixel*Frame) : 0.066
Stream size : 629 MiB (88%)
Default : Yes
Forced : No
Color range : Limited
Color primaries : BT.709
Transfer characteristics : BT.709
Matrix coefficients : BT.709

Audio
ID : 2
Format : AAC
Format/Info : Advanced Audio Codec
Format profile : LC
Codec ID : A_AAC
Duration : 59 min 57 s
Bit rate : 192 kb/s
Channel(s) : 2 channels
Channel positions : Front: L R
Sampling rate : 44.1 kHz
Frame rate : 43.066 FPS (1024 spf)
Compression mode : Lossy
Stream size : 82.3 MiB (12%)

..::ScreenShots::..

http://i.imgur.com/Qkf5wi0.png
http://i.imgur.com/N7o9aMn.png
http://i.imgur.com/kKBQYFb.png

================================================================
Seed Seed Seed Seed Seed Seed Seed Seed Seed Seed Seed Seed Seed
To direct download or Watch Online this file, Visit.
http://bit.ly/2qz6ATZ
Seed Seed Seed Seed Seed Seed Seed Seed Seed Seed Seed Seed Seed
================================================================

Download torrent

I.Am.Homicide.S02E04.HDTV.x264-W4F[ettv] torrent

Description

Et TV Shows

I.Am.Homicide.S02E04.HDTV.x264-W4F

[Format]: Matroska
[Duration]: 42mn 32s
[Resolution]: 720 x 404 pixels
[Display aspect ratio]: 16:9
[Frame rate mode]: Constant
[Frame rate]: 23.976 fps

#ettv -> To avoid fakes, ALWAYS check that the torrent was added by ettv

To keep us going Support us by donating Bitcoin: 1MbtePmWNM13SEkQgmxF6RSvfaXugF7rpz

Screens…

https://extraimage.net/image/NBAJ




Download torrent

Glastonbury 2017 Sampha (720p HD) torrent

Description

Glastonbury 2017 Sampha

Sampha’s music connects with people, but this was a set that did more; it moved us.

First broadcast: 23-25 June 2017 (720p HD)
Duration:  50 minutes

Media info:-
General
Format : MPEG-4
Format profile : Base Media
Codec ID : isom (isom/iso2/avc1/mp41)
File size : 909 MiB
Duration : 52mn 36s
Overall bit rate mode : Variable
Overall bit rate : 2 414 Kbps
Writing application : Lavf57.25.100

Video
ID : 1
Format : AVC
Format/Info : Advanced Video Codec
Format profile : [email protected]/* */
Format settings, CABAC : Yes
Format settings, ReFrames : 2 frames
Codec ID : avc1
Codec ID/Info : Advanced Video Coding
Duration : 52mn 36s
Bit rate mode : Variable
Bit rate : 2 316 Kbps
Maximum bit rate : 3 500 Kbps
Width : 1 280 pixels
Height : 720 pixels
Display aspect ratio : 16:9
Frame rate mode : Constant
Frame rate : 25.000 fps
Color space : YUV
Chroma subsampling : 4:2:0
Bit depth : 8 bits
Scan type : Progressive
Bits/(Pixel*Frame) : 0.101
Stream size : 871 MiB (96%)

Audio
ID : 2
Format : AAC
Format/Info : Advanced Audio Codec
Format profile : LC
Codec ID : 40
Duration : 52mn 36s
Bit rate mode : Variable
Bit rate : 93.5 Kbps
Maximum bit rate : 96.4 Kbps
Channel(s) : 2 channels
Channel positions : Front: L R
Sampling rate : 48.0 KHz
Frame rate : 46.875 fps (1024 spf)
Compression mode : Lossy
Stream size : 35.2 MiB (4%)

Download torrent

Nashville.2012.S05E16.720p.HDTV.x264-SVA torrent

Description

Nashville.2012.S05E16.720p.HDTV.x264-SVA

Complete name : Nashville.2012.S05E16.720p.HDTV.x264-SVA.mkv
Format : Matroska
Format version : Version 4 / Version 2
File size : 757 MiB
Duration : 42 min 8 s
Overall bit rate : 2 513 kb/s
Encoded date : UTC 2017-06-30 01:10:05
Writing application : FastLE v3.0.0 – AVS
Writing library : libx264 + libebml + libmatroska + libfastrar

Video
ID : 1
Format : AVC
Format/Info : Advanced Video Codec
Format profile : [email protected]/* */
Format settings, CABAC : Yes
Format settings, ReFrames : 5 frames
Codec ID : V_MPEG4/ISO/AVC
Duration : 42 min 8 s
Bit rate : 2 079 kb/s
Width : 1 280 pixels
Height : 720 pixels
Display aspect ratio : 16:9
Frame rate mode : Constant
Frame rate : 23.976 (24000/1001) FPS
Color space : YUV
Chroma subsampling : 4:2:0
Bit depth : 8 bits
Scan type : Progressive
Bits/(Pixel*Frame) : 0.094
Stream size : 627 MiB (83%)
Writing library : x264 core 150 r2833 df79067
Encoding settings : cabac=1 / ref=5 / deblock=1:0:0 / analyse=0x3:0x113 / me=hex / subme=8 / psy=1 / psy_rd=1.00:0.00 / mixed_ref=1 / me_range=16 / chroma_me=1 / trellis=2 / 8x8dct=1 / cqm=0 / deadzone=21,11 / fast_pskip=1 / chroma_qp_offset=-2 / threads=22 / lookahead_threads=3 / sliced_threads=0 / nr=0 / decimate=1 / interlaced=0 / bluray_compat=0 / constrained_intra=0 / bframes=3 / b_pyramid=2 / b_adapt=1 / b_bias=0 / direct=3 / weightb=1 / open_gop=0 / weightp=2 / keyint=250 / keyint_min=23 / scenecut=40 / intra_refresh=0 / rc_lookahead=50 / rc=crf / mbtree=1 / crf=18.0 / qcomp=0.60 / qpmin=0 / qpmax=69 / qpstep=4 / ip_ratio=1.40 / aq=1:1.00
Default : Yes
Forced : No
Color range : Limited
Matrix coefficients : BT.709

Audio
ID : 2
Format : AC-3
Format/Info : Audio Coding 3
Format settings, Endianness : Big
Codec ID : A_AC3
Duration : 42 min 8 s
Bit rate mode : Constant
Bit rate : 384 kb/s
Channel(s) : 6 channels
Channel positions : Front: L C R, Side: L R, LFE
Sampling rate : 48.0 kHz
Frame rate : 31.250 FPS (1536 spf)
Bit depth : 16 bits
Compression mode : Lossy
Stream size : 116 MiB (15%)
Service kind : Complete Main
Default : Yes
Forced : No


Click To View Screenshot
Click To View Screenshot
Click To View Screenshot

Download torrent

Stephen.Colbert.2017.06.28.Josh.Duhamel.HDTV.x264-CROOKS[ettv] torrent

Description

Et TV Shows

Stephen.Colbert.2017.06.28.Josh.Duhamel.HDTV.x264-CROOKS

[Format]: Matroska
[Duration]: 41mn 0s
[Resolution]: 720 x 404 pixels
[Display aspect ratio]: 16:9
[Frame rate mode]: Constant
[Frame rate]: 60.000 fps
[Original frame rate]: 59.940 fps

#ettv -> To avoid fakes, ALWAYS check that the torrent was added by ettv

To keep us going Support us by donating Bitcoin: 1MbtePmWNM13SEkQgmxF6RSvfaXugF7rpz

Screens…

https://extraimage.net/image/NCNk




Download torrent

Nick.Cannon.Presents.Wild.n.Out.S09E01.Chance.the.Rapper.HDTV.x26… torrent

Description

Et TV Shows

Nick.Cannon.Presents.Wild.n.Out.S09E01.Chance.the.Rapper.HDTV.x264-CRiMSON

[Format]: Matroska
[Duration]: 40mn 10s
[Resolution]: 720 x 404 pixels
[Display aspect ratio]: 16:9
[Frame rate mode]: Constant
[Frame rate]: 59.880 fps
[Original frame rate]: 59.940 fps

#ettv -> To avoid fakes, ALWAYS check that the torrent was added by ettv

To keep us going Support us by donating Bitcoin: 1MbtePmWNM13SEkQgmxF6RSvfaXugF7rpz

Screens…

https://extraimage.net/image/NChK




Download torrent

Quantico S02e22[Mux – 1080p – H264 – Ita Eng Ac3 – Sub Ita Eng] S… torrent

Description

GIUSEPPEiCV & LITTLELINX
HANNO IL PIACERE DI PRESENTARE


QUANTICO
STAGIONE 2
WEBMUX 1080p

Dual Language ITA – ENG
Sub ITA – ENG
Trovi tutte le nostre serie in anteprima solo su
IL CORSARO VERDE
www.icv-crew.org

.: Dati Serie :.

Nazione : United States
Anno : 2015 in produzione
Genere : drammatico, thriller
Stagioni : 2
Episodi : 44
Durata : 43 min circa
Lingua : ITA – ENG
Cast :
• Priyanka Chopra: Alex Parrish
• Josh Hopkins: Liam O’Connor
• Jake McLaughlin: Ryan Booth
• Aunjanue Ellis: Miranda Shaw
• Yasmine Al Masri: Nimah e Raina Amin
• Johanna Braddy: Shelby Wyatt
• Tate Ellington: Simon Asher
• Graham Rogers: Caleb Haas
• Anabelle Acosta: Natalie Vazquez

.: Trama  :.

A look at the lives of young FBI recruits training at the Quantico base in Virginia when one of them is suspected of being a sleeper terrorist.

La seconda stagione prende il via dalla sofferta decisione di Alex: abbandonare definitivamente l’ente investigativo e lasciarsi alle spalle la sua vecchia vita. Una pausa che verrà messa subito in discussione da una nuova proposta. Alex verrà infatti invitata dal misterioso Matthew Keyes ad addestrarsi ed entrare a far parte della CIA con il compito di salvare l’agenzia di spionaggio americana da un attacco informatico.

Tra le novità, da segnalare l’ingresso nel cast di Blair Underwood (già in Agents of S.H.I.E.L.D., Deep Impact) che ricoprirà il ruolo di Owen Hall, un agente della CIA dal passato misterioso.

Per Alex e Ryan l’attesa è terminata. È finalmente giunto il momento di tornare in azione.

.: Screenshot :.

[spoiler]

Quantico.2×01.Kudove.ITA.ENG.1080p.WEB-DLMux.H.264-Speranzah.mkv
Format                                   : Matroska
Format version                           : Version 4 / Version 2
File size                                : 1.71 GiB
Duration                                 : 41mn 10s
Overall bit rate                         : 5 959 Kbps
Encoded date                             : UTC 2016-11-08 21:46:58
Writing application                      : mkvmerge v7.6.0 (‘Garden of Dreams’) 64bit built on Feb  8 2015 15:12:28
Writing library                          : libebml v1.3.1 + libmatroska v1.4.2
DURATION                                 : 00:40:34.428000000
NUMBER_OF_FRAMES                         : 758
NUMBER_OF_BYTES                          : 29055
_STATISTICS_WRITING_APP                  : mkvmerge v7.6.0 (‘Garden of Dreams’) 64bit built on Feb  8 2015 15:12:28
_STATISTICS_WRITING_DATE_UTC             : 2016-11-08 21:46:58
_STATISTICS_TAGS                         : BPS DURATION NUMBER_OF_FRAMES NUMBER_OF_BYTES

Video
ID                                       : 1
Format                                   : AVC
Format/Info                              : Advanced Video Codec
Format profile                           : [email protected]/* */
Format settings, CABAC                   : Yes
Format settings, ReFrames                : 4 frames
Codec ID                                 : V_MPEG4/ISO/AVC
Duration                                 : 41mn 10s
Bit rate                                 : 5 265 Kbps
Width                                    : 1 920 pixels
Height                                   : 1 080 pixels
Display aspect ratio                     : 16:9
Frame rate                               : 25.000 fps
Color space                              : YUV
Chroma subsampling                       : 4:2:0
Bit depth                                : 8 bits
Scan type                                : Progressive
Bits/(Pixel*Frame)                       : 0.102
Stream size                              : 1.51 GiB (88%)
Language                                 : English
Default                                  : Yes
Forced                                   : No
Color primaries                          : BT.709-5, BT.1361, IEC 61966-2-4, SMPTE RP177
Transfer characteristics                 : BT.709-5, BT.1361
Matrix coefficients                      : BT.709-5, BT.1361, IEC 61966-2-4 709, SMPTE RP177

Audio #1
ID                                       : 2
Format                                   : AC-3
Format/Info                              : Audio Coding 3
Mode extension                           : CM (complete main)
Codec ID                                 : A_AC3
Duration                                 : 41mn 10s
Bit rate mode                            : Constant
Bit rate                                 : 192 Kbps
Channel(s)                               : 2 channels
Channel positions                        : Front: L R
Sampling rate                            : 44.1 KHz
Bit depth                                : 16 bits
Compression mode                         : Lossy
Stream size                              : 56.5 MiB (3%)
Title                                    : ITA
Language                                 : Italian
Default                                  : Yes
Forced                                   : Yes

Audio #2
ID                                       : 3
Format                                   : AC-3
Format/Info                              : Audio Coding 3
Mode extension                           : CM (complete main)
Codec ID                                 : A_AC3
Duration                                 : 41mn 10s
Bit rate mode                            : Constant
Bit rate                                 : 384 Kbps
Channel(s)                               : 6 channels
Channel positions                        : Front: L C R, Side: L R, LFE
Sampling rate                            : 48.0 KHz
Bit depth                                : 16 bits
Compression mode                         : Lossy
Stream size                              : 113 MiB (6%)
Title                                    : ENG
Language                                 : English
Default                                  : No
Forced                                   : No

Text #1
ID                                       : 4
Format                                   : UTF-8
Codec ID                                 : S_TEXT/UTF8
Codec ID/Info                            : UTF-8 Plain Text
Title                                    : ITA – Forced
Language                                 : Italian
Default                                  : Yes
Forced                                   : Yes

Text #2
ID                                       : 5
Format                                   : UTF-8
Codec ID                                 : S_TEXT/UTF8
Codec ID/Info                            : UTF-8 Plain Text
Language                                 : Italian
Default                                  : No
Forced                                   : No

Text #3
ID                                       : 6
Format                                   : UTF-8
Codec ID                                 : S_TEXT/UTF8
Codec ID/Info                            : UTF-8 Plain Text
Language                                 : English
Default                                  : No
Forced                                   : No

[/spoiler]

.: Ringraziamenti :.

RESTATE IN SEED ALTRIMENTI

Download torrent