The Magnificent Seven (2016) 720p BluRay x264 [Dual-Audio][Englis… torrent

Description

Quote:


Ratings: 6.9/10

Genere: Action, Adventure, Western

General
Unique ID : 223392136995056864595171481020528277479 (0xA80FC2B68BFD03288E04F3D8BBBB37E7)
Complete name : The Magnificent Seven (2016) 720p BluRay x264 [Dual-Audio][English DD 5.1 + Hindi DD 5.1 – Mafiaking – M2Tv.mkv
Format : Matroska
Format version : Version 4 / Version 2
File size : 1.30 GiB
Duration : 2 h 12 min
Overall bit rate : 1 400 kb/s
Movie name : The Magnificent Seven (2016) 720p BluRay x264 [Dual-Audio][English DD 5.1 + Hindi DD 5.1 – Mafiaking – M2Tv
Encoded date : UTC 2017-07-05 18:46:26
Writing application : mkvmerge v7.0.0 (‘Where We Going’) 32bit built on Jun 9 2014 15:08:34
Writing library : libebml v1.3.0 + libmatroska v1.4.1

Video
ID : 1
Format : AVC
Format/Info : Advanced Video Codec
Format profile : [email protected]/* */
Format settings, CABAC : Yes
Format settings, ReFrames : 4 frames
Codec ID : V_MPEG4/ISO/AVC
Duration : 2 h 12 min
Bit rate : 950 kb/s
Width : 1 280 pixels
Height : 536 pixels
Display aspect ratio : 2.40:1
Frame rate mode : Constant
Frame rate : 23.976 (24000/1001) FPS
Color space : YUV
Chroma subsampling : 4:2:0
Bit depth : 8 bits
Scan type : Progressive
Bits/(Pixel*Frame) : 0.058
Stream size : 903 MiB (68%)
Title : Mafiaking
Language : English
Default : Yes
Forced : No

Audio #1
ID : 2
Format : AC-3
Format/Info : Audio Coding 3
Format settings, Endianness : Big
Codec ID : A_AC3
Duration : 2 h 12 min
Bit rate mode : Constant
Bit rate : 224 kb/s
Channel(s) : 6 channels
Channel positions : Front: L C R, Side: L R, LFE
Sampling rate : 48.0 kHz
Frame rate : 31.250 FPS (1536 spf)
Bit depth : 16 bits
Compression mode : Lossy
Delay relative to video : 1 s 325 ms
Stream size : 213 MiB (16%)
Title : Mafiaking
Language : Hindi
Service kind : Complete Main
Default : Yes
Forced : No

Audio #2
ID : 3
Format : AC-3
Format/Info : Audio Coding 3
Format settings, Endianness : Big
Codec ID : A_AC3
Duration : 2 h 12 min
Bit rate mode : Constant
Bit rate : 224 kb/s
Channel(s) : 6 channels
Channel positions : Front: L C R, Side: L R, LFE
Sampling rate : 48.0 kHz
Frame rate : 31.250 FPS (1536 spf)
Bit depth : 16 bits
Compression mode : Lossy
Stream size : 213 MiB (16%)
Title : Mafiaking
Language : English
Service kind : Complete Main
Default : No
Forced : No

SAMPLE WITH IN TORRENT

**To View Image In Full Size Click on Thumbnails**

Download torrent