Tag Archives: Movies

Ghost In The Shell 2017 720p WEB-DL HEVC x265-RMTeam torrent

Description

Genre: Action | Crime | Drama | Mystery | Sci-Fi | Thriller
IMDB Rating: 6.6/10 From 69,343 Users
Directed by: Rupert Sanders
Starring: Scarlett Johansson, Pilou Asbæk, Takeshi Kitano

Plot: In the near future, Major (Scarlett Johansson) is the first of her kind: A human saved from a terrible crash, who is cyber-enhanced to be a perfect soldier devoted to stopping the world’s most dangerous criminals. When terrorism reaches a new level that includes the ability to hack into people’s minds and control them, Major is uniquely qualified to stop it. As she prepares to face a new enemy, Major discovers that she has been lied to: her life was not saved, it was stolen. She will stop at nothing to recover her past, find out who did this to her and stop them before they do it to others. Based on the internationally acclaimed Japanese Manga, “The Ghost in the Shell.

Download torrent

Predators.(2010).1080p.BDRip.Dual.Audio.Org.BD.5.1.{Hindi+Eng}.-~… torrent

Description

Download torrent

All.Nighter.2017.DVDRip.x264-PSYCHD torrent

Description


All.Nighter.2017.DVDRip.x264-PSYCHD

IMDb: http://www.imdb.com/title/tt4662420/


General

(Duration): 1h 25mn
(FileSize): 319 MiB

Audio

(Format): AAC – Advanced Audio Codec
(Codec): AAC LC

Video

(Format): AVC – Advanced Video Codec
(Media): video/H264
(Format): x264
(Resolution): 720×300 px
(AspectRatio): 2.40:1
(FrameRate): 23.976 fps

(Click to enlarge)

Download torrent

Ghost.In.The.Shell.2017.720p.WEBRip.x264.AAC-Ozlem torrent

Description

Ghost.In.The.Shell.2017.720p.WEBRip.x264.AAC-Ozlem

=== NFO ===

Encoder………..: Ozlem
File Size………: 840 MB
Source…………: Ghost.In.The.Shell.2017.720p.WEB-DL.H264.AC3-EVO
Runtime………..: 01:47:12
Resolution……..: 1280×720
Video Codec…….: x264
Video Format……: MP4
Frame Rate……..: 24 fps
Audio …………: English , AAC , 2 CH , 96 Kbps
Subtitles………: N/A
IMDB Rating…….: 6.6/10 from 69,375 users
Genre………….: Action, Crime, Drama
IMDB ………….: http://www.imdb.com/title/tt1219827/

=== PLOT ===

In the near future, Major is the first of her kind: A human saved from a terrible crash, who is cyber-enhanced to be a perfect soldier devoted to stopping the world’s most dangerous criminals.

=== Screens ===

=== Attention Please ===

This movie can be watched on TV,PC,tablets,phones and Cars with high quality.

If you have any problems with video/audio , Please update K Lite Mega Codec pack.

Tested on MPC,VLC,PS 3/4,PSP,XBOX 360,iTunes,ipad2,ipad mini,iphone 4/5S/6/7,Samsung Galaxy S5/S6/S7 EDGE and Gear VR,Samsung/LG/Vestel/SONY/Panasonic/Philips/Sharp/Toshiba/Beko/Arçelik/Sunny Smart TV,Renault MEGANE 4

U can Follow Us on Facebook ==> ozlem.torrents

Download torrent

Ghost.in.the.Shell.2017.1080p.WEB-DL.DD5.1.H264-STRiFE[EtHD] torrent

Description

EtHD – EtHD – Et High-Definition Movies

—————————————————–

Ghost.in.the.Shell.2017.1080p.WEB-DL.DD5.1.H264-STRiFE

http://www.imdb.com/title/tt1219827/

[Video Bitrate]:………….: 5411kb/s
[Duration]:………….: 1 h 47 min
[Video Codec]:………….: AVC
[Resolution]:………….: 1920×1080 px
[Aspect Ratio]:………….: 16:9
[Audio Codec]:………….: AC-3
[Audio Bitrate]:………….: 384kb/s
[Audio Channels]:………….: 5.1ch
[Audio Language]:………….: English

Genre …………………..: Action | Crime | Drama | Mystery | Sci-Fi | Thriller

#EtHD -> To avoid fakes, ALWAYS check that the torrent was added by EtHD

To keep us going Support us by donating Bitcoin: 1MbtePmWNM13SEkQgmxF6RSvfaXugF7rpz

Screens…

https://extraimage.net/image/Nrqy
https://extraimage.net/image/NrqL
https://extraimage.net/image/NrqQ
https://extraimage.net/image/NrqR
https://extraimage.net/image/Nrqm
https://extraimage.net/image/Nrqh

Download torrent

Ghost in the Shell (2017) 1080p WEB-DL AC3 6CH 1.9GB – MkvCage torrent

Description

-:RELEASE NOTES:-

Quote:

IMDb:- http://www.imdb.com/title/tt1219827
Movie Title: Ghost in the Shell (2017)
Director: Rupert Sanders
Stars: Scarlett Johansson, Pilou Asbæk, Takeshi Kitano
Release Date: 30 March 2017 (UK)
Genres: Action, Crime, Drama
Format: MatRoska (Mkv)
File Size: 1.9GB
Resolution: 1920×1080
Runtime: 01:47:12
Language: English
Subtitles: English [Softcoded] – Muxed
Encoder: MkvCage (MC) Team
Source: 1080p.WEB-DL.DD5.1.H264-STRiFE
Video/Audio(MediaInfo) :- http://pastehere.xyz/32882/

-:SCREENSHOTS:-

Download torrent

Ghost in the Shell 2017 720p 2CH WEB-DL x265 HEVC 550MB torrent

Description

StoryLine:

In the near future, Major is the first of her kind: a human who is cyber-enhanced to be a perfect soldier devoted to stopping the world’s most dangerous criminals. When terrorism reaches a new level that includes the ability to hack into people’s minds and control them, Major is uniquely qualified to stop it. As she prepares to face a new enemy, Major discovers that her life was stolen instead of saved. Now, she will stop at nothing to recover her past while punishing those who did this to her.

MediaInfo :

Video Codec: HEVC
BitRate: 652kbps

Audio Codec: HE-AAC
Bit Rate : 64kbps

SCREENS:









Download torrent

Ghost In The Shell 2017 720p WEB-DL x264 [English 5.1] Moviezworl… torrent

Description

Video
ID :: 0
Format :: Matroska
Codec :: V_MPEG-4 / AVC / H264
Duration :: 1 h 47 min
Bit rate :: 1200 kb / s
Width :: 1280 pixels
Height :: 720 pixels
Frame rate :: 23.9704 FPS
Stream size ::1 GB
Writing Codec :: x264

Audio ##1
ID :: 1
Format :: AC3
Codec :: AC3 / a52
Duration :: 1 h 47 Min
Bit rate :: 190 kb/s
Channel :: 5.1
Sample rate :: 44100.0 Hz
Language :: English


Subtitle :: English

Quote:
Plz Seed Upto 24 Hours


Tap On Image To View Full Screen

Download torrent

Get.the.Girl.2017.BDRip.x264-JustWatch torrent

Description

Get.the.Girl.2017.BDRip.x264-JustWatch

ImDb: http://www.imdb.com/title/tt4045894

Complete name : Get.the.Girl.2017.BDRip.x264-JustWatch.mkv
Format : Matroska
Format version : Version 4 / Version 2
File size : 360 MiB
Duration : 1 h 27 min
Overall bit rate : 575 kb/s
Encoded date : UTC 2017-07-06 09:17:49
Writing application : mkvmerge v9.8.0 (‘Kuglblids’) 64bit
Writing library : libebml v1.3.4 + libmatroska v1.4.5

Video
ID : 1
Format : AVC
Format/Info : Advanced Video Codec
Format profile : [email protected]/* */
Format settings, CABAC : Yes
Format settings, ReFrames : 5 frames
Codec ID : V_MPEG4/ISO/AVC
Duration : 1 h 27 min
Bit rate : 453 kb/s
Width : 720 pixels
Height : 300 pixels
Display aspect ratio : 2.40:1
Frame rate mode : Constant
Frame rate : 23.976 (24000/1001) FPS
Color space : YUV
Chroma subsampling : 4:2:0
Bit depth : 8 bits
Scan type : Progressive
Bits/(Pixel*Frame) : 0.087
Stream size : 284 MiB (79%)
Writing library : x264 core 152 r2851 ba24899
Encoding settings : cabac=1 / ref=5 / deblock=1:-2:-2 / analyse=0x3:0x113 / me=umh / subme=8 / psy=1 / psy_rd=1.00:0.00 / mixed_ref=1 / me_range=16 / chroma_me=1 / trellis=2 / 8x8dct=1 / cqm=0 / deadzone=21,11 / fast_pskip=1 / chroma_qp_offset=-2 / threads=9 / lookahead_threads=1 / sliced_threads=0 / nr=0 / decimate=1 / interlaced=0 / bluray_compat=0 / constrained_intra=0 / bframes=3 / b_pyramid=2 / b_adapt=2 / b_bias=0 / direct=3 / weightb=1 / open_gop=0 / weightp=2 / keyint=240 / keyint_min=24 / scenecut=40 / intra_refresh=0 / rc_lookahead=50 / rc=crf / mbtree=1 / crf=19.0 / qcomp=0.60 / qpmin=0 / qpmax=69 / qpstep=4 / ip_ratio=1.40 / aq=1:0.70
Language : English
Default : Yes
Forced : No
Color range : Limited
Matrix coefficients : BT.709

Audio
ID : 2
Format : AAC
Format/Info : Advanced Audio Codec
Format profile : LC
Codec ID : A_AAC
Duration : 1 h 27 min
Bit rate : 120 kb/s
Channel(s) : 2 channels
Channel positions : Front: L R
Sampling rate : 48.0 kHz
Frame rate : 46.875 FPS (1024 spf)
Compression mode : Lossy
Delay relative to video : 9 ms
Stream size : 75.0 MiB (21%)
Language : English
Default : Yes
Forced : No

Menu #1
00:00:00.000 : en:00:00:00.000
00:07:06.843 : en:00:07:06.843
00:14:22.612 : en:00:14:22.612
00:23:30.284 : en:00:23:30.284
00:28:57.277 : en:00:28:57.277
00:36:36.569 : en:00:36:36.569
00:46:11.018 : en:00:46:11.018
00:56:25.882 : en:00:56:25.882
01:03:31.474 : en:01:03:31.474
01:10:36.732 : en:01:10:36.732
01:18:14.565 : en:01:18:14.565
01:23:59.159 : en:01:23:59.159

Menu #2
00:00:00.054 : en:00:00:00.054

Click To View Screenshot

Click To View Screenshot

Click To View Screenshot

Download torrent

Get.the.Girl.2017.BDRip.x264-JustWatch-RARBG-[theAmresh] torrent

Description

Get The Girl (2017)

About

Download torrent

Get.the.Girl.2017.1080p.BluRay.x264-JustWatch[rarbg] torrent

Description

IMDB Rating: 5.2/10 from 431 users Updated : 2017-07-05
Genres: Action , Comedy , Crime , Thriller
Actors: Justin Dobies , Elizabeth Whitson , Noah Segan , Jerry Purpdrank , James Landry Hébert , Scout Taylor-Compton , Adi Shankar
Director: Eric England

A wealthy young man is conned into staging a fake kidnapping in order to be a hero and win the affection of a girl he’s madly in love with. But when one of the hired kidnappers is accidentally killed during the charade| he’s forced to actually save her life while not revealing that it’s been a ruse all along.

Download torrent

The Fate of the Furious (2017) 1080p BluRay x264 DTS 5.1 – Hon3y torrent

Description

The Fate of the Furious (2017) 1080p BluRay x264 DTS 5.1 – Hon3y

http://www.hdsector.com

Source BD50 @ CHD. Many Thanks !

Format : Matroska
Format version : Version 4 / Version 2
File size : 7.95 GiB
Duration : 2 h 15 min
Overall bit rate : 8 367 kb/s
Movie name : The Fate of the Furious (2017)- Hon3yHD

Video
ID : 1
Format : AVC
Format/Info : Advanced Video Codec
Format profile : [email protected]/* */
Format settings, CABAC : Yes
Format settings, ReFrames : 5 frames
Codec ID : V_MPEG4/ISO/AVC
Duration : 2 h 15 min
Bit rate : 6 856 kb/s
Width : 1 920 pixels
Height : 800 pixels
Display aspect ratio : 2.40:1
Frame rate mode : Constant
Frame rate : 23.976 (24000/1001) FPS

Audio
ID : 2
Format : DTS
Format/Info : Digital Theater Systems
Mode : 16
Format settings, Endianness : Big
Codec ID : A_DTS
Duration : 2 h 15 min
Bit rate mode : Constant
Bit rate : 1 509 kb/s
Channel(s) : 6 channels
Channel positions : Front: L C R, Side: L R, LFE
Sampling rate : 48.0 kHz
Frame rate : 93.750 FPS (512 spf)
Bit depth : 24 bits
Compression mode : Lossy
Stream size : 1.43 GiB (18%)
Language : English
Default : Yes
Forced : No

Text
ID : 3
Format : UTF-8
Codec ID : S_TEXT/UTF8
Codec ID/Info : UTF-8 Plain Text
Duration : 2 h 6 min
Bit rate : 50 b/s
Count of elements : 1517
Stream size : 46.5 KiB (0%)
Language : English
Default : Yes
Forced : No

Menu
00:00:00.000 : en:00:00:00.000
00:13:08.913 : en:00:13:08.913
00:20:30.771 : en:00:20:30.771
00:26:38.639 : en:00:26:38.639
00:32:26.778 : en:00:32:26.778
00:36:40.573 : en:00:36:40.573
00:43:35.613 : en:00:43:35.613
00:47:45.780 : en:00:47:45.780
00:56:00.732 : en:00:56:00.732
01:04:08.303 : en:01:04:08.303
01:09:08.061 : en:01:09:08.061
01:13:24.275 : en:01:13:24.275
01:21:25.714 : en:01:21:25.714
01:29:29.948 : en:01:29:29.948
01:35:12.457 : en:01:35:12.457
01:39:55.781 : en:01:39:55.781
01:45:00.711 : en:01:45:00.711
01:53:01.858 : en:01:53:01.858
02:01:51.262 : en:02:01:51.262
02:06:45.097 : en:02:06:45.097

http://www.hdsector.com

Download torrent

Get.the.Girl.2017.BDRip.x264-JustWatch torrent

Description


Get.the.Girl.2017.BDRip.x264-JustWatch

IMDb: http://www.imdb.com/title/tt4045894/


General

(Duration): 1h 27mn
(FileSize): 360 MiB

Audio

(Format): AAC – Advanced Audio Codec
(Codec): AAC LC

Video

(Format): AVC – Advanced Video Codec
(Media): video/H264
(Format): x264
(Resolution): 720×300 px
(AspectRatio): 2.40:1
(FrameRate): 23.976 fps

(Click to enlarge)

Download torrent

Ghost in the Shell 2017 1080p 2CH WEB-DL x265 HEVC 1.1GB torrent

Description

StoryLine:

In the near future, Major is the first of her kind: a human who is cyber-enhanced to be a perfect soldier devoted to stopping the world’s most dangerous criminals. When terrorism reaches a new level that includes the ability to hack into people’s minds and control them, Major is uniquely qualified to stop it. As she prepares to face a new enemy, Major discovers that her life was stolen instead of saved. Now, she will stop at nothing to recover her past while punishing those who did this to her.

MediaInfo :

Video Codec: HEVC
BitRate: 1500kbps

Audio Codec: HE-AAC
Bit Rate : 160kbps

SCREENS:




Download torrent

Get.the.Girl.2017.720p.BluRay.x264-JustWatch torrent

Description

Get.the.Girl.2017.720p.BluRay.x264-JustWatch

ImDb: http://www.imdb.com/title/tt4045894

Complete name : get.the.girl.2017.720p.bluray.x264-justwatch.mkv
Format : Matroska
Format version : Version 2
File size : 4.37 GiB
Duration : 1 h 27 min
Overall bit rate : 7 137 kb/s
Writing application : mkvmerge v4.1.1 (‘Bouncin’ Back’) built on Jul 3 2010 22:54:08
Writing library : libebml v1.0.0 + libmatroska v1.0

Video
ID : 1
Format : AVC
Format/Info : Advanced Video Codec
Format profile : [email protected]/* */
Format settings, CABAC : Yes
Format settings, ReFrames : 5 frames
Codec ID : V_MPEG4/ISO/AVC
Duration : 1 h 27 min
Bit rate : 5 627 kb/s
Width : 1 280 pixels
Height : 536 pixels
Display aspect ratio : 2.40:1
Frame rate mode : Constant
Frame rate : 23.976 (24000/1001) FPS
Color space : YUV
Chroma subsampling : 4:2:0
Bit depth : 8 bits
Scan type : Progressive
Bits/(Pixel*Frame) : 0.342
Stream size : 3.36 GiB (77%)
Writing library : x264 core 152 r2851 ba24899
Encoding settings : cabac=1 / ref=5 / deblock=1:-2:-2 / analyse=0x3:0x113 / me=umh / subme=8 / psy=1 / psy_rd=1.00:0.00 / mixed_ref=1 / me_range=16 / chroma_me=1 / trellis=2 / 8x8dct=1 / cqm=0 / deadzone=21,11 / fast_pskip=1 / chroma_qp_offset=-2 / threads=12 / lookahead_threads=2 / sliced_threads=0 / nr=0 / decimate=1 / interlaced=0 / bluray_compat=0 / constrained_intra=0 / bframes=3 / b_pyramid=2 / b_adapt=2 / b_bias=0 / direct=3 / weightb=1 / open_gop=0 / weightp=2 / keyint=240 / keyint_min=24 / scenecut=40 / intra_refresh=0 / rc_lookahead=50 / rc=2pass / mbtree=1 / bitrate=5627 / ratetol=1.0 / qcomp=0.60 / qpmin=0 / qpmax=69 / qpstep=4 / cplxblur=20.0 / qblur=0.5 / ip_ratio=1.40 / aq=1:1.00
Language : English
Default : Yes
Forced : No

Audio
ID : 2
Format : DTS
Format/Info : Digital Theater Systems
Mode : 16
Format settings, Endianness : Big
Codec ID : A_DTS
Duration : 1 h 27 min
Bit rate mode : Constant
Bit rate : 1 509 kb/s
Channel(s) : 6 channels
Channel positions : Front: L C R, Side: L R, LFE
Sampling rate : 48.0 kHz
Frame rate : 93.750 FPS (512 spf)
Bit depth : 24 bits
Compression mode : Lossy
Stream size : 946 MiB (21%)
Language : English
Default : Yes
Forced : No

Menu
00:00:00.000 : en:00:00:00.000
00:07:06.843 : en:00:07:06.843
00:14:22.612 : en:00:14:22.612
00:23:30.284 : en:00:23:30.284
00:28:57.277 : en:00:28:57.277
00:36:36.569 : en:00:36:36.569
00:46:11.018 : en:00:46:11.018
00:56:25.882 : en:00:56:25.882
01:03:31.474 : en:01:03:31.474
01:10:36.732 : en:01:10:36.732
01:18:14.565 : en:01:18:14.565
01:23:59.159 : en:01:23:59.159

Click To View Screenshot

Click To View Screenshot

Click To View Screenshot

Download torrent