Doctor.Strange.2016.iTALiAN.MD.HD-TS.x264.mkv-iDN_CreW torrent

Description

nuuuuuuuuuuu.png

WUx1uO2.png

Info Seed/Peer

1cf2b07c0.png

DATI.png

Titolo originale: Doctor Strange

Conosciuto anche come: Marvel’s Doctor Strange, Dr. Strange

Nazione: U.S.A.

Anno: 2016

Genere: Azione, Avventura, Fantastico

Durata: 115′

Regia: Scott Derrickson

Sito ufficiale:

Social network: facebook

Cast: Benedict Cumberbatch, Chiwetel Ejiofor, Rachel McAdams, Michael Stuhlbarg, Mads Mikkelsen, Tilda Swinton, Scott Adkins, Benedict Wong, Amy Landecker

Produzione: Marvel Studios

Distribuzione: Walt Disney

Data di uscita: 26 Ottobre 2016 (cinema)

TRAMA.png

Il neurochirurgo Stephen Strange vede la sua vita cambiare per sempre dopo che un terribile incidente automobilistico lo priva dell’uso delle mani. Quando la medicina tradizionale si dimostra incapace di guarirlo, Strange è costretto cercare una cura in un luogo inaspettato: una misteriosa enclave nota come Kamar-Taj. Scoprirà presto che non si tratta soltanto di un luogo di guarigione, ma della prima linea di una battaglia contro invisibili forze oscure decise a distruggere la nostra realtà. Presto, Strange imparerà a padroneggiare la magia e sarà costretto a scegliere se fare ritorno alla sua vita agiata o abbandonare tutto per difendere il mondo e diventare il più potente stregone vivente.

VISIT :http://www.ildragonero.info/

SCREEN.png

vlcsnap_2016_11_23_21h26m14s239.png

vlcsnap_2016_11_23_21h29m25s156.png

vlcsnap_2016_11_23_21h39m23s253.png

vlcsnap_2016_11_23_21h39m54s43.png

vlcsnap_2016_11_23_21h45m21s238.png

vlcsnap_2016_11_23_22h31m06s192.png

youtrue.png

AUDIO.png

Audio: 6.5 Video: 7.5

Download torrent

BBC.Our.World.2016.Cleansing.Turkey.720p.HDTV.x264.AAC .mkv torrent

Description

Cleansing Turkey

Sociopolitical Documentary hosted by Tim Whewell, published by BBC broadcasted as part of BBC Our World series in 2016 – English narration

Cleansing-Turkey-Cover.jpg

Information

On one traumatic night in July 2016, a faction of the Turkish military tried to overthrow the government. The coup failed, but hundreds of people were killed. President Erdogan said it was the work of the US-based cleric Fethullah Gulen and his supporters. Gulen denies involvement, but President Erdogan has vowed to ‘cleanse the virus’ behind the coup attempt and thousands of Turks, accused of being Gulenist sympathisers, have lost their jobs. Tim Whewell reports.

Screenshots

[img]http://docuwiki.net/thumb.php?f=Cleansing-Turkey-Screen0.jpg&w=120[/img]

[img]http://docuwiki.net/thumb.php?f=Cleansing-Turkey-Screen1.jpg&w=120[/img]

[img]http://docuwiki.net/thumb.php?f=Cleansing-Turkey-Screen2.jpg&w=120[/img]

[img]http://docuwiki.net/thumb.php?f=Cleansing-Turkey-Screen3.jpg&w=120[/img]

[img]http://docuwiki.net/thumb.php?f=Cleansing-Turkey-Screen4.jpg&w=120[/img]

[img]http://docuwiki.net/thumb.php?f=Cleansing-Turkey-Screen5.jpg&w=120[/img]

[img]http://docuwiki.net/thumb.php?f=Cleansing-Turkey-Screen6.jpg&w=120[/img]

[img]http://docuwiki.net/thumb.php?f=Cleansing-Turkey-Screen7.jpg&w=120[/img]

[img]http://docuwiki.net/thumb.php?f=Cleansing-Turkey-Screen8.jpg&w=120[/img]

Technical Specs

* Video Codec: x264 CABAC [email protected]/* */

* Video Bitrate: CRF 20 (~2440Kbps)

* Video Resolution: 1280×656

* Video Aspect Ratio: 1.95:1

* Frames Rate: 25 FPS

* Audio Codec: AAC-LC

* Audio Bitrate: Q=0.48 VBR 48KHz (~125Kbps)

* Audio Channels: 2

* Run-Time: 23 mins

* Number Of Parts: 1

* Part Size: 417 MB

* Source: HDTV

* Encoded by: JungleBoy

Links

1) Further Information

* BBC

2) Related Documentaries

* Turkey’s Hidden Truths

* Foothills of Turkey

* Lithuania, San Francisco, Turkey

* Remembering the Armenian Massacres

* Life in a Suitcase

* Common Pain

* Cover Story (Al-Jazeera)

* Byzantium: A Tale of Three Cities

* The Ottomans: Europe’s Muslim Emperors

* The Delights of Turkey

3) ed2k Links

[url=”ed2k://|file|BBC.Our.World.2016.Cleansing.Turkey.720p.HDTV.x264.AAC.MVGroup.org.mkv|437252586|0817c216d7d232ba217b8dcaf33f167e|/”]BBC.Our.World.2016.Cleansing.Turkey.720p.HDTV.x264.AAC.MVGroup.org.mkv[/url]

Source: http://docuwiki.net/index.php?title=Cleansing_Turkey

Download torrent

Clive of India (1935) Xvid – Ronald Coleman, Loretta Young [DDR] torrent

Description

2016.11.26ffcfc5481473386.jpg

Clive of India (1935) Xvid – Ronald Coleman, Loretta Young [DDR]

e7fe52516764432.jpg 05804d516764434.jpg

Clive of India is a 1935 American historical biographical film based on Robert, Lord Clive’s life. It was written by R.J. Minney and W. P. Lipscomb and directed by Richard Boleslawski. Colin Clive, who appears in the film, was a descendant of Clive.

CAST:-

Ronald Colman as Robert Clive

Loretta Young as Margaret Maskelyne Clive

Colin Clive as Captain Johnstone

Francis Lister as Edmund Maskelyne

C. Aubrey Smith as the British Prime Minister

Cesar Romero as Mir Jaffar

Gilbert Emery as Sullivan

Leo G. Carroll as Manning

Directed by Richard Boleslawski

Produced by William Goetz

Running time 95 min.

MOVIE PLOT:- Clive of India (1935)

In the mid-1700’s the East India Company has power over commerce on the sub-continent, with the blessings of the British government. A clerk in the company, Robert Clive, is frustrated by his lack of advancement, and transfers to the military arm of the company, where he excels. Clive’s leadership and gift for manipulation strengthen England’s hold over India and lead to personal wealth, which is often threatened by the enemies he makes along the way

In 1748 at Fort St. David, India, Robert Clive (Ronald Colman), a disenchanted East India Company clerk, joins the British army to help combat the French. Through brash daring, Clive escapes capture and leads a courageous attack that saves the entire British army. Within a year, Clive becomes the head of Southern India. He then returns to Britain, marries a friend’s sister, Margaret (Loretta Young), and gains a seat in Parliament. Yet when uprisings stir India again, Clive is recalled east.

fe06d3516764436.jpg 33e161516764439.jpg 63c007516764443.jpg

TECHNICAL SPECIFICATIONS:-

Video Codec: XviD ISO MPEG-4

Video Bitrate: 629 kbps

Video Resolution: 640×480

Video Aspect Ratio: 1.333:1

Frames Per Second: 23.976

Audio Codec: 0x2000 (Dolby AC3) AC3

Audio Bitrate: 192kb/s CBR 48000 Hz

Audio Streams: 2

Audio Languages: English

RunTime 95 mins

Subtitles: NONE

Source DVD5

Ripped by: Trinidad [DDR]

Download torrent

Bundaim.2012.S ED.DOCU.DVDRIP.X264-WATCHABLE[PRiME] torrent

Description

Bundaim.2012.SUBBED.DOCU.DVDRIP.X264-WATCHABLE[PRiME]

Info.png

Complete name : watchable-bundaim[PRiME].mkv

Format : Matroska

Format version : Version 4 / Version 2

File size : 670 MiB

Duration : 48 min 5 s

Overall bit rate : 1 949 kb/s

Encoded date : UTC 2016-11-21 14:26:04

Writing application : mkvmerge v8.5.1 (‘Where you lead I will follow’) 64bit

Writing library : libebml v1.3.3 + libmatroska v1.4.4

Video

ID : 1

Format : AVC

Format/Info : Advanced Video Codec

Format profile : [email protected]/* */

Format settings, CABAC : Yes

Format settings, ReFrames : 5 frames

Codec ID : V_MPEG4/ISO/AVC

Duration : 48 min 5 s

Bit rate : 1 857 kb/s

Width : 720 pixels

Height : 530 pixels

Display aspect ratio : 4:3

Frame rate mode : Constant

Frame rate : 25.000 FPS

Color space : YUV

Chroma subsampling : 4:2:0

Bit depth : 8 bits

Scan type : Progressive

Bits/(Pixel*Frame) : 0.195

Stream size : 639 MiB (95%)

Writing library : x264 core 148 r2705 3f5ed56

Encoding settings : cabac=1 / ref=5 / deblock=1:0:0 / analyse=0x3:0x113 / me=umh / subme=8 / psy=1 / psy_rd=1.00:0.00 / mixed_ref=1 / me_range=16 / chroma_me=1 / trellis=1 / 8x8dct=1 / cqm=0 / deadzone=21,11 / fast_pskip=1 / chroma_qp_offset=-2 / threads=6 / lookahead_threads=1 / sliced_threads=0 / nr=0 / decimate=1 / interlaced=0 / bluray_compat=0 / constrained_intra=0 / bframes=3 / b_pyramid=2 / b_adapt=2 / b_bias=0 / direct=3 / weightb=1 / open_gop=0 / weightp=2 / keyint=250 / keyint_min=25 / scenecut=40 / intra_refresh=0 / rc_lookahead=50 / rc=crf / mbtree=1 / crf=19.0 / qcomp=0.60 / qpmin=0 / qpmax=69 / qpstep=4 / ip_ratio=1.40 / aq=1:1.00

Default : Yes

Forced : No

Audio

ID : 2

Format : AAC

Format/Info : Advanced Audio Codec

Format profile : LC

Codec ID : A_AAC

Duration : 48 min 4 s

Bit rate : 90.3 kb/s

Channel(s) : 2 channels

Channel positions : Front: L R

Sampling rate : 48.0 kHz

Frame rate : 46.875 FPS (1024 spf)

Compression mode : Lossy

Delay relative to video : 9 ms

Stream size : 31.1 MiB (5%)

Language : Hebrew

Default : Yes

Forced : No

Menu

00:00:00.000 : en:Chapter 1

00:02:06.200 : en:Chapter 2

00:11:55.720 : en:Chapter 3

00:20:34.560 : en:Chapter 4

00:29:37.040 : en:Chapter 5

00:40:13.160 : en:Chapter 6

00:45:40.240 : en:Chapter 7

Screens.png

Click Image To View Full Size

EFbe5.th.jpg

Click To View Screenshot

Click To View Screenshot

Click To View Screenshot

Download torrent

A Child is Waiting (1963) Xvid – Judy Garland, Burt Lancaster [DDR] torrent

Description

2016.11.26ffcfc5481473386.jpg

A Child is Waiting (1963) Xvid – Judy Garland, Burt Lancaster [DDR]

635f6d516763855.jpg c52628516763856.jpg

A Child Is Waiting is a 1963 drama film written by Abby Mann based on his 1957 Westinghouse Studio One teleplay of the same name. The film was produced by Stanley Kramer and directed by John Cassavetes. Burt Lancaster portrays the director of a state institution for mentally handicapped and emotionally disturbed children, and Judy Garland is a new teacher who challenges his methods.

CAST:-

Burt Lancaster as Dr. Matthew Clark

Judy Garland as Jean Hansen

Gena Rowlands as Sophie Widdicombe Benham

Steven Hill as Ted Widdicombe

Lawrence Tierney as Douglas Benham

Bruce Ritchey as Reuben Widdicombe

John Marley as Holland

Paul Stewart as Goodman

Elizabeth Wilson as Miss Fogarty

Barbara Pepper as Miss Brown

Keith and Kerry Simon as infant Ruben

Billy Mumy as boy counting Jean’s pearls

Directed by John Cassavetes

Produced by Stanley Kramer

Written by Abby Mann

Running time 102 minutes

MOVIE PLOT:- A Child is aiting (1963)

Jean Hansen, a Juilliard graduate, joins the staff of the Crawthorne State Mental Hospital and immediately clashes with the director, Dr. Matthew Clark, about his strict training methods. She becomes emotionally involved with 12-year-old Reuben Widdicombe (Bruce Ritchey), and is certain his attitude will improve if he is reunited with the divorced parents who abandoned him. She sends for Mrs. Widdicombe, who agrees with the doctor’s opinion that it would be best if Reuben doesn’t see her, but as she leaves the grounds, her son sees her and chases her car. Distraught, he runs away from the school.

Dr. Clark finds him and brings him back the following morning, and Jean offers to resign. Clark asks her to stay and continue her rehearsals for the Thanksgiving pageant. On the day of the show, Reuben’s father Ted arrives, having decided to enroll him in a private school. When he hears Reuben recite a poem and positively react to the audience’s applause, he decides to leave him in the care of Jean, who is asked to welcome a new boy to the institution by Dr. Clark.

40ffc5516763857.jpg f928ce516763858.jpg e1d14e516763859.jpg

TECHNICAL SPECIFICATIONS:-

Video Codec: XviD ISO MPEG-4

Video Bitrate: 482 kbps

Video Resolution: 640×384

Video Aspect Ratio: 1.750:1

Frames Per Second: 23.976

Audio Codec: 0x2000 (Dolby AC3) AC3

Audio Bitrate: 192kb/s CBR 48000 Hz

Audio Streams: 2

Audio Languages: English

RunTime 102 mins

Subtitles: None

Source DVD5

Ripped by: Trinidad [DDR]

Download torrent

A Child is Waiting (1963) DVD5 – Judy Garland, Burt Lancaster [DDR] torrent

Description

2016.11.26ffcfc5481473386.jpg

A Child is Waiting (1963) DVD5 – Judy Garland, Burt Lancaster [DDR]

635f6d516763768.jpg 9a3570516763769.jpg

A Child Is Waiting is a 1963 drama film written by Abby Mann based on his 1957 Westinghouse Studio One teleplay of the same name. The film was produced by Stanley Kramer and directed by John Cassavetes. Burt Lancaster portrays the director of a state institution for mentally handicapped and emotionally disturbed children, and Judy Garland is a new teacher who challenges his methods.

CAST:-

Burt Lancaster as Dr. Matthew Clark

Judy Garland as Jean Hansen

Gena Rowlands as Sophie Widdicombe Benham

Steven Hill as Ted Widdicombe

Lawrence Tierney as Douglas Benham

Bruce Ritchey as Reuben Widdicombe

John Marley as Holland

Paul Stewart as Goodman

Elizabeth Wilson as Miss Fogarty

Barbara Pepper as Miss Brown

Keith and Kerry Simon as infant Ruben

Billy Mumy as boy counting Jean’s pearls

Directed by John Cassavetes

Produced by Stanley Kramer

Written by Abby Mann

Running time 102 minutes

MOVIE PLOT:- A Child is aiting (1963)

Jean Hansen, a Juilliard graduate, joins the staff of the Crawthorne State Mental Hospital and immediately clashes with the director, Dr. Matthew Clark, about his strict training methods. She becomes emotionally involved with 12-year-old Reuben Widdicombe (Bruce Ritchey), and is certain his attitude will improve if he is reunited with the divorced parents who abandoned him. She sends for Mrs. Widdicombe, who agrees with the doctor’s opinion that it would be best if Reuben doesn’t see her, but as she leaves the grounds, her son sees her and chases her car. Distraught, he runs away from the school.

Dr. Clark finds him and brings him back the following morning, and Jean offers to resign. Clark asks her to stay and continue her rehearsals for the Thanksgiving pageant. On the day of the show, Reuben’s father Ted arrives, having decided to enroll him in a private school. When he hears Reuben recite a poem and positively react to the audience’s applause, he decides to leave him in the care of Jean, who is asked to welcome a new boy to the institution by Dr. Clark.

c6e934516763772.jpg 3c2b5f516763773.jpg d8cc77516763774.jpg

TECHNICAL SPECIFICATIONS:-

Video Codec: MPEG-2

Video Bitrate: 4738 kbps

Video Resolution: 720×480

Video Aspect Ratio: 1.778::1

Frames Per Second: 29.970

Audio Codec: AC3

Audio Bitrate: 192kb/s CBR 48000 Hz

Audio Streams: 2

Audio Languages: English

RunTime 102 mins

Subtitles: None

Source DVD5

Ripped by: Trinidad [DDR]

Download torrent

Bundaim.2012.S ED.DOCU.DVDRIP.X264-WATCHABLE torrent

Description

Bundaim.2012.SUBBED.DOCU.DVDRIP.X264-WATCHABLE

t52z.png

General

(Duration): 48mn 5s

(FileSize): 670 MiB

Audio

(Format): AAC – Advanced Audio Codec

(Codec): AAC LC

Video

(Format): AVC – Advanced Video Codec

(Media): video/H264

(Format): x264

(Resolution): 720×530 px

(AspectRatio): 4:3

(FrameRate): 25.000 fps

tzTE.png

(Click to enlarge)

axrXe.th.jpg ax6Uc.th.jpg axEPu.th.jpg axHc3.th.jpg axI9n.th.jpg axfbA.th.jpg

Download torrent

The.Others.2001.INTERNAL.BDRip.x264-KEBAP torrent

Description

The.Others.2001.INTERNAL.BDRip.x264-KEBAP

IMDb: http://www.imdb.com/title/tt0230600/

MV5BMTAxMDE4Mzc3ODNeQTJeQWpwZ15BbWU4MDY2Mjg4MDcx._V1_SX300.jpg

t52z.png

General

(Duration): 1h 44mn

(FileSize): 530 MiB

Audio

(Format): AAC – Advanced Audio Codec

(Codec): AAC LC

Video

(Format): AVC – Advanced Video Codec

(Media): video/H264

(Format): x264

(Resolution): 720×406 px

(AspectRatio): 16:9

(FrameRate): 23.976 fps

tzTE.png

(Click to enlarge)

ar99E.th.jpg arvaz.th.jpg are7M.th.jpg arhjZ.th.jpg axUHl.th.jpg axZWP.th.jpg

Download torrent

Ben.Hur.2016.BRRip.XviD.AC3-iFT[PRiME] torrent

Description

Ben.Hur.2016.BRRip.XviD.AC3-iFT[PRiME]

ImDb: http://www.imdb.com/title/tt2638144

Info.png

Complete name : Ben.Hur.2016.BRRip.XviD.AC3-iFT[PRiME].avi

Format : AVI

Format/Info : Audio Video Interleave

Format profile : OpenDML

Format settings : rec

File size : 2.14 GiB

Duration : 2 h 4 min

Overall bit rate : 2 451 kb/s

Writing application : AVI-Mux GUI 1.17.8.3, Feb 16 201019:42:50

Video

ID : 0

Format : MPEG-4 Visual

Format profile : Advanced [email protected]/* */

Format settings, BVOP : 2

Format settings, QPel : No

Format settings, GMC : No warppoints

Format settings, Matrix : Default (H.263)

Muxing mode : Packed bitstream

Codec ID : XVID

Codec ID/Hint : XviD

Duration : 2 h 4 min

Bit rate : 1 998 kb/s

Width : 720 pixels

Height : 304 pixels

Display aspect ratio : 2.35:1

Frame rate : 23.976 (23976/1000) FPS

Color space : YUV

Chroma subsampling : 4:2:0

Bit depth : 8 bits

Scan type : Progressive

Compression mode : Lossy

Bits/(Pixel*Frame) : 0.381

Stream size : 1.74 GiB (81%)

Writing library : XviD 73

Audio

ID : 1

Format : AC-3

Format/Info : Audio Coding 3

Mode extension : CM (complete main)

Format settings, Endianness : Big

Codec ID : 2000

Duration : 2 h 4 min

Bit rate mode : Constant

Bit rate : 448 kb/s

Channel(s) : 6 channels

Channel positions : Front: L C R, Side: L R, LFE

Sampling rate : 48.0 kHz

Frame rate : 31.250 FPS (1536 spf)

Compression mode : Lossy

Stream size : 400 MiB (18%)

Alignment : Aligned on interleaves

Interleave, duration : 64 ms (1.53 video frames)

Interleave, preload duration : 192 ms

Title : ac3

Screens.png

Click Image To View Full Size

EJ6t6.th.jpg

Click To View Screenshot

Click To View Screenshot

Click To View Screenshot

Download torrent

The.Others.2001.INTERNAL.BDRip.x264-KEBAP[PRiME] torrent

Description

The.Others.2001.INTERNAL.BDRip.x264-KEBAP[PRiME]

ImDb: http://www.imdb.com/title/tt0230600

Info.png

Complete name : kebap-theothers2001[PRiME].mkv

Format : Matroska

Format version : Version 4 / Version 2

File size : 530 MiB

Duration : 1 h 44 min

Overall bit rate : 709 kb/s

Encoded date : UTC 2016-11-26 09:40:49

Writing application : mkvmerge v9.5.0 (‘Quiet Fire’) 64bit

Writing library : libebml v1.3.4 + libmatroska v1.4.5

Video

ID : 1

Format : AVC

Format/Info : Advanced Video Codec

Format profile : [email protected]/* */

Format settings, CABAC : Yes

Format settings, ReFrames : 5 frames

Codec ID : V_MPEG4/ISO/AVC

Duration : 1 h 44 min

Bit rate : 547 kb/s

Width : 720 pixels

Height : 406 pixels

Display aspect ratio : 16:9

Frame rate mode : Constant

Frame rate : 23.976 (24000/1001) FPS

Color space : YUV

Chroma subsampling : 4:2:0

Bit depth : 8 bits

Scan type : Progressive

Bits/(Pixel*Frame) : 0.078

Stream size : 409 MiB (77%)

Writing library : x264 core 148 r2721 72d53ab

Encoding settings : cabac=1 / ref=5 / deblock=1:0:0 / analyse=0x3:0x113 / me=hex / subme=8 / psy=1 / psy_rd=1.00:0.00 / mixed_ref=1 / me_range=16 / chroma_me=1 / trellis=2 / 8x8dct=1 / cqm=0 / deadzone=21,11 / fast_pskip=0 / chroma_qp_offset=-2 / threads=12 / lookahead_threads=2 / sliced_threads=0 / nr=0 / decimate=1 / interlaced=0 / bluray_compat=0 / constrained_intra=0 / bframes=3 / b_pyramid=2 / b_adapt=1 / b_bias=0 / direct=3 / weightb=1 / open_gop=0 / weightp=2 / keyint=240 / keyint_min=23 / scenecut=40 / intra_refresh=0 / rc_lookahead=50 / rc=crf / mbtree=1 / crf=19.0 / qcomp=0.60 / qpmin=0 / qpmax=69 / qpstep=4 / ip_ratio=1.40 / aq=1:1.00

Language : English

Default : Yes

Forced : No

Color range : Limited

Matrix coefficients : BT.709

Audio

ID : 2

Format : AAC

Format/Info : Advanced Audio Codec

Format profile : LC

Codec ID : A_AAC

Duration : 1 h 44 min

Bit rate : 160 kb/s

Channel(s) : 2 channels

Channel positions : Front: L R

Sampling rate : 48.0 kHz

Frame rate : 46.875 FPS (1024 spf)

Compression mode : Lossy

Delay relative to video : 9 ms

Stream size : 120 MiB (23%)

Language : English

Default : Yes

Forced : No

Menu #1

00:00:00.000 : en:00:00:00.000

00:07:33.286 : en:00:07:33.286

00:11:58.509 : en:00:11:58.509

00:14:40.213 : en:00:14:40.213

00:20:21.137 : en:00:20:21.137

00:25:30.028 : en:00:25:30.028

00:29:39.987 : en:00:29:39.987

00:36:12.045 : en:00:36:12.045

00:42:14.907 : en:00:42:14.907

00:46:54.937 : en:00:46:54.937

00:53:57.734 : en:00:53:57.734

00:59:09.838 : en:00:59:09.838

01:02:55.730 : en:01:02:55.730

01:09:58.778 : en:01:09:58.778

01:21:40.646 : en:01:21:40.646

01:34:44.429 : en:01:34:44.429

Menu #2

00:00:00.054 : en:00:00:00.054

Screens.png

Click Image To View Full Size

EFzpB.th.jpg

Click To View Screenshot

Click To View Screenshot

Click To View Screenshot

Download torrent

Ben.Hur.2016.BRRip.XviD.AC3-EVO[PRiME] torrent

Description

Ben.Hur.2016.BRRip.XviD.AC3-EVO[PRiME]

ImDb: http://www.imdb.com/title/tt2638144

Info.png

Complete name : Ben.Hur.2016.BRRip.XviD.AC3-EVO[PRiME].avi

Format : AVI

Format/Info : Audio Video Interleave

File size : 1.40 GiB

Duration : 2 h 4 min

Overall bit rate : 1 601 kb/s

Writing library : VirtualDub build 32593/release

Video

ID : 0

Format : MPEG-4 Visual

Format profile : Advanced [email protected]/* */

Format settings, BVOP : 2

Format settings, QPel : No

Format settings, GMC : No warppoints

Format settings, Matrix : Default (H.263)

Muxing mode : Packed bitstream

Codec ID : XVID

Codec ID/Hint : XviD

Duration : 2 h 4 min

Bit rate : 1 208 kb/s

Width : 720 pixels

Height : 304 pixels

Display aspect ratio : 2.35:1

Frame rate : 23.976 (23976/1000) FPS

Color space : YUV

Chroma subsampling : 4:2:0

Bit depth : 8 bits

Scan type : Progressive

Compression mode : Lossy

Bits/(Pixel*Frame) : 0.230

Stream size : 1.05 GiB (75%)

Writing library : XviD 66

Audio

ID : 1

Format : AC-3

Format/Info : Audio Coding 3

Mode extension : CM (complete main)

Format settings, Endianness : Big

Codec ID : 2000

Duration : 2 h 4 min

Bit rate mode : Constant

Bit rate : 384 kb/s

Channel(s) : 6 channels

Channel positions : Front: L C R, Side: L R, LFE

Sampling rate : 48.0 kHz

Frame rate : 31.250 FPS (1536 spf)

Compression mode : Lossy

Stream size : 343 MiB (24%)

Alignment : Aligned on interleaves

Interleave, duration : 42 ms (1.00 video frame)

Interleave, preload duration : 512 ms

Screens.png

Click Image To View Full Size

EJuzn.th.jpg

Click To View Screenshot

Click To View Screenshot

Click To View Screenshot

Download torrent

Finding.Dory.Marine.Life.Interviews.2016.BDRip.x264-FLAME[PRiME] torrent

Description

Finding.Dory.Marine.Life.Interviews.2016.BDRip.x264-FLAME[PRiME]

ImDb: http://www.imdb.com/title/tt6233934

Info.png

Complete name : flame-finding.dory.marine.life.interviews.2016.bdrip.x264[PRiME].mkv

Format : Matroska

Format version : Version 4 / Version 2

File size : 18.2 MiB

Duration : 2 min 4 s

Overall bit rate : 1 229 kb/s

Encoded date : UTC 2016-11-26 14:35:10

Writing application : mkvmerge v9.4.2 (‘So High’) 64bit

Writing library : libebml v1.3.4 + libmatroska v1.4.5

Video

ID : 1

Format : AVC

Format/Info : Advanced Video Codec

Format profile : [email protected]/* */

Format settings, CABAC : Yes

Format settings, ReFrames : 8 frames

Codec ID : V_MPEG4/ISO/AVC

Duration : 2 min 4 s

Bit rate : 1 075 kb/s

Width : 720 pixels

Height : 404 pixels

Display aspect ratio : 16:9

Frame rate mode : Constant

Frame rate : 23.976 (24000/1001) FPS

Color space : YUV

Chroma subsampling : 4:2:0

Bit depth : 8 bits

Scan type : Progressive

Bits/(Pixel*Frame) : 0.154

Stream size : 15.9 MiB (87%)

Writing library : x264 core 148 r2721 72d53ab

Encoding settings : cabac=1 / ref=8 / deblock=1:0:0 / analyse=0x3:0x133 / me=umh / subme=9 / psy=1 / psy_rd=1.00:0.00 / mixed_ref=1 / me_range=16 / chroma_me=1 / trellis=2 / 8x8dct=1 / cqm=0 / deadzone=21,11 / fast_pskip=0 / chroma_qp_offset=-2 / threads=12 / lookahead_threads=1 / sliced_threads=0 / nr=0 / decimate=1 / interlaced=0 / bluray_compat=0 / constrained_intra=0 / bframes=3 / b_pyramid=2 / b_adapt=2 / b_bias=0 / direct=3 / weightb=1 / open_gop=0 / weightp=2 / keyint=250 / keyint_min=23 / scenecut=40 / intra_refresh=0 / rc_lookahead=60 / rc=crf / mbtree=1 / crf=19.0 / qcomp=0.60 / qpmin=0 / qpmax=69 / qpstep=4 / ip_ratio=1.40 / aq=1:1.00

Language : English

Default : Yes

Forced : No

Color range : Limited

Matrix coefficients : BT.709

Audio

ID : 2

Format : AAC

Format/Info : Advanced Audio Codec

Format profile : LC

Codec ID : A_AAC

Duration : 2 min 4 s

Bit rate : 151 kb/s

Channel(s) : 2 channels

Channel positions : Front: L R

Sampling rate : 48.0 kHz

Frame rate : 46.875 FPS (1024 spf)

Compression mode : Lossy

Delay relative to video : 9 ms

Stream size : 2.24 MiB (12%)

Title : English AAC-LC 151 kbps

Language : English

Default : Yes

Forced : No

Text #1

ID : 3

Format : UTF-8

Codec ID : S_TEXT/UTF8

Codec ID/Info : UTF-8 Plain Text

Duration : 2 min 0 s

Bit rate : 109 b/s

Count of elements : 48

Stream size : 1.61 KiB (0%)

Title : English SDH

Language : English

Default : No

Forced : No

Text #2

ID : 4

Format : UTF-8

Codec ID : S_TEXT/UTF8

Codec ID/Info : UTF-8 Plain Text

Duration : 1 min 37 s

Bit rate : 86 b/s

Count of elements : 39

Stream size : 1.02 KiB (0%)

Title : Polish

Language : Polish

Default : No

Forced : No

Screens.png

Click Image To View Full Size

EFnYZ.th.jpg

Click To View Screenshot

Click To View Screenshot

Click To View Screenshot

Download torrent

Finding.Dory.Marine.Life.Interviews.2016.BDRip.x264-FLAME torrent

Description

Finding.Dory.Marine.Life.Interviews.2016.BDRip.x264-FLAME

IMDb: http://www.imdb.com/title/tt6233934/

t52z.png

General

(Duration): 2mn 4s

(FileSize): 18.2 MiB

Audio

(Format): AAC – Advanced Audio Codec

(Codec): AAC LC

Video

(Format): AVC – Advanced Video Codec

(Media): video/H264

(Format): x264

(Resolution): 720×404 px

(AspectRatio): 16:9

(FrameRate): 23.976 fps

tzTE.png

(Click to enlarge)

axKPX.th.jpg axPiw.th.jpg axgGL.th.jpg ax4bp.th.jpg axMRC.th.jpg axQjG.th.jpg

Download torrent

A.Sunday.Kind.of.Love.2015.720p.BluRay.x264-GUACAMOLE[PRiME] torrent

Description

A.Sunday.Kind.of.Love.2015.720p.BluRay.x264-GUACAMOLE[PRiME]

ImDb: http://www.imdb.com/title/tt3611112

Info.png

Complete name : gua-sundaykindoflove-720p[PRiME].mkv

Format : Matroska

Format version : Version 4 / Version 2

File size : 4.37 GiB

Duration : 1 h 32 min

Overall bit rate : 6 730 kb/s

Encoded date : UTC 2016-11-26 01:42:44

Writing application : mkvmerge v9.0.1 (‘Obstacles’) 64bit

Writing library : libebml v1.3.3 + libmatroska v1.4.4

Video

ID : 1

Format : AVC

Format/Info : Advanced Video Codec

Format profile : [email protected]/* */

Format settings, CABAC : Yes

Format settings, ReFrames : 5 frames

Codec ID : V_MPEG4/ISO/AVC

Duration : 1 h 32 min

Bit rate : 5 220 kb/s

Width : 1 280 pixels

Height : 720 pixels

Display aspect ratio : 16:9

Frame rate mode : Constant

Frame rate : 23.976 (24000/1001) FPS

Color space : YUV

Chroma subsampling : 4:2:0

Bit depth : 8 bits

Scan type : Progressive

Bits/(Pixel*Frame) : 0.236

Stream size : 3.39 GiB (78%)

Writing library : x264 core 148 r2705 3f5ed56

Encoding settings : cabac=1 / ref=5 / deblock=1:0:0 / analyse=0x3:0x113 / me=umh / subme=7 / psy=1 / psy_rd=1.00:0.00 / mixed_ref=1 / me_range=16 / chroma_me=1 / trellis=1 / 8x8dct=1 / cqm=0 / deadzone=21,11 / fast_pskip=0 / chroma_qp_offset=-2 / threads=12 / lookahead_threads=2 / sliced_threads=0 / nr=0 / decimate=1 / interlaced=0 / bluray_compat=0 / constrained_intra=0 / bframes=3 / b_pyramid=2 / b_adapt=2 / b_bias=0 / direct=3 / weightb=1 / open_gop=0 / weightp=2 / keyint=250 / keyint_min=23 / scenecut=40 / intra_refresh=0 / rc_lookahead=50 / rc=2pass / mbtree=1 / bitrate=5220 / ratetol=1.0 / qcomp=0.60 / qpmin=0 / qpmax=69 / qpstep=4 / cplxblur=20.0 / qblur=0.5 / ip_ratio=1.40 / aq=1:1.00

Default : Yes

Forced : No

Audio

ID : 2

Format : DTS

Format/Info : Digital Theater Systems

Mode : 16

Format settings, Endianness : Big

Codec ID : A_DTS

Duration : 1 h 32 min

Bit rate mode : Constant

Bit rate : 1 509 kb/s

Channel(s) : 6 channels

Channel positions : Front: L C R, Side: L R, LFE

Sampling rate : 48.0 kHz

Frame rate : 93.750 FPS (512 spf)

Bit depth : 24 bits

Compression mode : Lossy

Stream size : 1 004 MiB (22%)

Language : English

Default : Yes

Forced : No

Screens.png

Click Image To View Full Size

E1yBh.th.jpg

Click To View Screenshot

Click To View Screenshot

Click To View Screenshot

Download torrent

Ben.Hur.2016.BDRip.x264-GECKOS torrent

Description

Ben.Hur.2016.BDRip.x264-GECKOS

IMDb: http://www.imdb.com/title/tt2638144/

MV5BMjQ2NzYxMDQ2OV5BMl5BanBnXkFtZTgwMDk2MzczOTE@._V1_SX300.jpg

t52z.png

General

(Duration): 2h 4mn

(FileSize): 1.04 GiB

Audio

(Format): AAC – Advanced Audio Codec

(Codec): AAC LC

Video

(Format): AVC – Advanced Video Codec

(Media): video/H264

(Format): x264

(Resolution): 720×300 px

(AspectRatio): 2.40:1

(FrameRate): 23.976 fps

tzTE.png

(Click to enlarge)

ax27k.th.jpg axAjm.th.jpg axbII.th.jpg axoW5.th.jpg axutW.th.jpg axCZx.th.jpg

Download torrent

Movies,Music,Games,Books,App,TV Shows,Series,Hot girls,the top hot girls are here!Best hot girl and hottest girls ever seen.Hot girls and girl sexy now.Hottest best hot girls in the world.search torrents, download torrents, torrent download – NO ADS – Enjoy!