Code Geass: Akito the Exiled 1 [EngDub] Download torrent

Description

Code Geass: Akito the Exiled 1: The Wyvern Arrives [EngDub] x264 Download

Quote:
The side story takes place in 2017 a.t.b., between the rise of the “Black Knights” organization and the return of the supposedly “dead” Zero. The setting is in Europe, where the European Union (E.U.) allied nations are being invaded by the overwhelming forces of the Holy Britannian Empire. On the verge of defeat, the E.U. army forms a special unit known as “W-0″, of which a young pilot named Akito Hyuga is a member. Leila Malkal , a former Britannian Aristocrat comes to the E.U.’s aid, commanding the “Wyvern” Knightmare corps comprised of Japanese teenagers. They recklessly plunge into a battlefield, where the survival rate is extremely low, at about 5% only. They fight for their freedom and for a “home” to which they can return.

..::File Specs::..
General

Format : Matroska
Format version : Version 4 / Version 2
File size : 550 MiB
Duration : 50 min 53 s
Overall bit rate : 1 510 kb/s

Video
ID : 1
Format : AVC
Format/Info : Advanced Video Codec
Format profile : [email protected]/* */
Format settings, CABAC : Yes
Format settings, ReFrames : 1 frame
Codec ID : V_MPEG4/ISO/AVC
Duration : 50 min 53 s
Bit rate : 1 316 kb/s
Width : 1 280 pixels
Height : 720 pixels
Display aspect ratio : 16:9
Frame rate mode : Constant
Frame rate : 23.976 (24000/1001) FPS
Color space : YUV
Chroma subsampling : 4:2:0
Bit depth : 8 bits
Scan type : Progressive
Bits/(Pixel*Frame) : 0.060
Stream size : 479 MiB (87%)
Default : Yes
Forced : No
Color range : Limited
Color primaries : BT.709
Transfer characteristics : BT.709
Matrix coefficients : BT.709

Audio
ID : 2
Format : AAC
Format/Info : Advanced Audio Codec
Format profile : LC
Codec ID : A_AAC
Duration : 50 min 53 s
Bit rate : 192 kb/s
Channel(s) : 2 channels
Channel positions : Front: L R
Sampling rate : 44.1 kHz
Frame rate : 43.066 FPS (1024 spf)
Compression mode : Lossy
Stream size : 69.9 MiB (13%)

..::ScreenShots::..

https://s12.postimg.org/ymnr2rkwd/vlcsnap-2017-07-05-00h58m23s116.png
https://s12.postimg.org/70kzi31jh/vlcsnap-2017-07-05-00h58m29s682.png
https://s12.postimg.org/eull3h9cd/vlcsnap-2017-07-05-00h58m34s330.png

================================================================
Seed Seed Seed Seed Seed Seed Seed Seed Seed Seed Seed Seed Seed
To direct download or Watch Online this file, Visit.
http://bit.ly/2qz6ATZ
Seed Seed Seed Seed Seed Seed Seed Seed Seed Seed Seed Seed Seed
================================================================

Download torrent