All posts by winner

Bundaim.2012.S ED.DOCU.DVDRIP.X264-WATCHABLE torrent

Description

Bundaim.2012.SUBBED.DOCU.DVDRIP.X264-WATCHABLE

t52z.png

General

(Duration): 48mn 5s

(FileSize): 670 MiB

Audio

(Format): AAC – Advanced Audio Codec

(Codec): AAC LC

Video

(Format): AVC – Advanced Video Codec

(Media): video/H264

(Format): x264

(Resolution): 720×530 px

(AspectRatio): 4:3

(FrameRate): 25.000 fps

tzTE.png

(Click to enlarge)

axrXe.th.jpg ax6Uc.th.jpg axEPu.th.jpg axHc3.th.jpg axI9n.th.jpg axfbA.th.jpg

Download torrent

The.Others.2001.INTERNAL.BDRip.x264-KEBAP torrent

Description

The.Others.2001.INTERNAL.BDRip.x264-KEBAP

IMDb: http://www.imdb.com/title/tt0230600/

MV5BMTAxMDE4Mzc3ODNeQTJeQWpwZ15BbWU4MDY2Mjg4MDcx._V1_SX300.jpg

t52z.png

General

(Duration): 1h 44mn

(FileSize): 530 MiB

Audio

(Format): AAC – Advanced Audio Codec

(Codec): AAC LC

Video

(Format): AVC – Advanced Video Codec

(Media): video/H264

(Format): x264

(Resolution): 720×406 px

(AspectRatio): 16:9

(FrameRate): 23.976 fps

tzTE.png

(Click to enlarge)

ar99E.th.jpg arvaz.th.jpg are7M.th.jpg arhjZ.th.jpg axUHl.th.jpg axZWP.th.jpg

Download torrent

Ben.Hur.2016.BRRip.XviD.AC3-iFT[PRiME] torrent

Description

Ben.Hur.2016.BRRip.XviD.AC3-iFT[PRiME]

ImDb: http://www.imdb.com/title/tt2638144

Info.png

Complete name : Ben.Hur.2016.BRRip.XviD.AC3-iFT[PRiME].avi

Format : AVI

Format/Info : Audio Video Interleave

Format profile : OpenDML

Format settings : rec

File size : 2.14 GiB

Duration : 2 h 4 min

Overall bit rate : 2 451 kb/s

Writing application : AVI-Mux GUI 1.17.8.3, Feb 16 201019:42:50

Video

ID : 0

Format : MPEG-4 Visual

Format profile : Advanced [email protected]/* */

Format settings, BVOP : 2

Format settings, QPel : No

Format settings, GMC : No warppoints

Format settings, Matrix : Default (H.263)

Muxing mode : Packed bitstream

Codec ID : XVID

Codec ID/Hint : XviD

Duration : 2 h 4 min

Bit rate : 1 998 kb/s

Width : 720 pixels

Height : 304 pixels

Display aspect ratio : 2.35:1

Frame rate : 23.976 (23976/1000) FPS

Color space : YUV

Chroma subsampling : 4:2:0

Bit depth : 8 bits

Scan type : Progressive

Compression mode : Lossy

Bits/(Pixel*Frame) : 0.381

Stream size : 1.74 GiB (81%)

Writing library : XviD 73

Audio

ID : 1

Format : AC-3

Format/Info : Audio Coding 3

Mode extension : CM (complete main)

Format settings, Endianness : Big

Codec ID : 2000

Duration : 2 h 4 min

Bit rate mode : Constant

Bit rate : 448 kb/s

Channel(s) : 6 channels

Channel positions : Front: L C R, Side: L R, LFE

Sampling rate : 48.0 kHz

Frame rate : 31.250 FPS (1536 spf)

Compression mode : Lossy

Stream size : 400 MiB (18%)

Alignment : Aligned on interleaves

Interleave, duration : 64 ms (1.53 video frames)

Interleave, preload duration : 192 ms

Title : ac3

Screens.png

Click Image To View Full Size

EJ6t6.th.jpg

Click To View Screenshot

Click To View Screenshot

Click To View Screenshot

Download torrent

The.Others.2001.INTERNAL.BDRip.x264-KEBAP[PRiME] torrent

Description

The.Others.2001.INTERNAL.BDRip.x264-KEBAP[PRiME]

ImDb: http://www.imdb.com/title/tt0230600

Info.png

Complete name : kebap-theothers2001[PRiME].mkv

Format : Matroska

Format version : Version 4 / Version 2

File size : 530 MiB

Duration : 1 h 44 min

Overall bit rate : 709 kb/s

Encoded date : UTC 2016-11-26 09:40:49

Writing application : mkvmerge v9.5.0 (‘Quiet Fire’) 64bit

Writing library : libebml v1.3.4 + libmatroska v1.4.5

Video

ID : 1

Format : AVC

Format/Info : Advanced Video Codec

Format profile : [email protected]/* */

Format settings, CABAC : Yes

Format settings, ReFrames : 5 frames

Codec ID : V_MPEG4/ISO/AVC

Duration : 1 h 44 min

Bit rate : 547 kb/s

Width : 720 pixels

Height : 406 pixels

Display aspect ratio : 16:9

Frame rate mode : Constant

Frame rate : 23.976 (24000/1001) FPS

Color space : YUV

Chroma subsampling : 4:2:0

Bit depth : 8 bits

Scan type : Progressive

Bits/(Pixel*Frame) : 0.078

Stream size : 409 MiB (77%)

Writing library : x264 core 148 r2721 72d53ab

Encoding settings : cabac=1 / ref=5 / deblock=1:0:0 / analyse=0x3:0x113 / me=hex / subme=8 / psy=1 / psy_rd=1.00:0.00 / mixed_ref=1 / me_range=16 / chroma_me=1 / trellis=2 / 8x8dct=1 / cqm=0 / deadzone=21,11 / fast_pskip=0 / chroma_qp_offset=-2 / threads=12 / lookahead_threads=2 / sliced_threads=0 / nr=0 / decimate=1 / interlaced=0 / bluray_compat=0 / constrained_intra=0 / bframes=3 / b_pyramid=2 / b_adapt=1 / b_bias=0 / direct=3 / weightb=1 / open_gop=0 / weightp=2 / keyint=240 / keyint_min=23 / scenecut=40 / intra_refresh=0 / rc_lookahead=50 / rc=crf / mbtree=1 / crf=19.0 / qcomp=0.60 / qpmin=0 / qpmax=69 / qpstep=4 / ip_ratio=1.40 / aq=1:1.00

Language : English

Default : Yes

Forced : No

Color range : Limited

Matrix coefficients : BT.709

Audio

ID : 2

Format : AAC

Format/Info : Advanced Audio Codec

Format profile : LC

Codec ID : A_AAC

Duration : 1 h 44 min

Bit rate : 160 kb/s

Channel(s) : 2 channels

Channel positions : Front: L R

Sampling rate : 48.0 kHz

Frame rate : 46.875 FPS (1024 spf)

Compression mode : Lossy

Delay relative to video : 9 ms

Stream size : 120 MiB (23%)

Language : English

Default : Yes

Forced : No

Menu #1

00:00:00.000 : en:00:00:00.000

00:07:33.286 : en:00:07:33.286

00:11:58.509 : en:00:11:58.509

00:14:40.213 : en:00:14:40.213

00:20:21.137 : en:00:20:21.137

00:25:30.028 : en:00:25:30.028

00:29:39.987 : en:00:29:39.987

00:36:12.045 : en:00:36:12.045

00:42:14.907 : en:00:42:14.907

00:46:54.937 : en:00:46:54.937

00:53:57.734 : en:00:53:57.734

00:59:09.838 : en:00:59:09.838

01:02:55.730 : en:01:02:55.730

01:09:58.778 : en:01:09:58.778

01:21:40.646 : en:01:21:40.646

01:34:44.429 : en:01:34:44.429

Menu #2

00:00:00.054 : en:00:00:00.054

Screens.png

Click Image To View Full Size

EFzpB.th.jpg

Click To View Screenshot

Click To View Screenshot

Click To View Screenshot

Download torrent

Ben.Hur.2016.BRRip.XviD.AC3-EVO[PRiME] torrent

Description

Ben.Hur.2016.BRRip.XviD.AC3-EVO[PRiME]

ImDb: http://www.imdb.com/title/tt2638144

Info.png

Complete name : Ben.Hur.2016.BRRip.XviD.AC3-EVO[PRiME].avi

Format : AVI

Format/Info : Audio Video Interleave

File size : 1.40 GiB

Duration : 2 h 4 min

Overall bit rate : 1 601 kb/s

Writing library : VirtualDub build 32593/release

Video

ID : 0

Format : MPEG-4 Visual

Format profile : Advanced [email protected]/* */

Format settings, BVOP : 2

Format settings, QPel : No

Format settings, GMC : No warppoints

Format settings, Matrix : Default (H.263)

Muxing mode : Packed bitstream

Codec ID : XVID

Codec ID/Hint : XviD

Duration : 2 h 4 min

Bit rate : 1 208 kb/s

Width : 720 pixels

Height : 304 pixels

Display aspect ratio : 2.35:1

Frame rate : 23.976 (23976/1000) FPS

Color space : YUV

Chroma subsampling : 4:2:0

Bit depth : 8 bits

Scan type : Progressive

Compression mode : Lossy

Bits/(Pixel*Frame) : 0.230

Stream size : 1.05 GiB (75%)

Writing library : XviD 66

Audio

ID : 1

Format : AC-3

Format/Info : Audio Coding 3

Mode extension : CM (complete main)

Format settings, Endianness : Big

Codec ID : 2000

Duration : 2 h 4 min

Bit rate mode : Constant

Bit rate : 384 kb/s

Channel(s) : 6 channels

Channel positions : Front: L C R, Side: L R, LFE

Sampling rate : 48.0 kHz

Frame rate : 31.250 FPS (1536 spf)

Compression mode : Lossy

Stream size : 343 MiB (24%)

Alignment : Aligned on interleaves

Interleave, duration : 42 ms (1.00 video frame)

Interleave, preload duration : 512 ms

Screens.png

Click Image To View Full Size

EJuzn.th.jpg

Click To View Screenshot

Click To View Screenshot

Click To View Screenshot

Download torrent

Finding.Dory.Marine.Life.Interviews.2016.BDRip.x264-FLAME[PRiME] torrent

Description

Finding.Dory.Marine.Life.Interviews.2016.BDRip.x264-FLAME[PRiME]

ImDb: http://www.imdb.com/title/tt6233934

Info.png

Complete name : flame-finding.dory.marine.life.interviews.2016.bdrip.x264[PRiME].mkv

Format : Matroska

Format version : Version 4 / Version 2

File size : 18.2 MiB

Duration : 2 min 4 s

Overall bit rate : 1 229 kb/s

Encoded date : UTC 2016-11-26 14:35:10

Writing application : mkvmerge v9.4.2 (‘So High’) 64bit

Writing library : libebml v1.3.4 + libmatroska v1.4.5

Video

ID : 1

Format : AVC

Format/Info : Advanced Video Codec

Format profile : [email protected]/* */

Format settings, CABAC : Yes

Format settings, ReFrames : 8 frames

Codec ID : V_MPEG4/ISO/AVC

Duration : 2 min 4 s

Bit rate : 1 075 kb/s

Width : 720 pixels

Height : 404 pixels

Display aspect ratio : 16:9

Frame rate mode : Constant

Frame rate : 23.976 (24000/1001) FPS

Color space : YUV

Chroma subsampling : 4:2:0

Bit depth : 8 bits

Scan type : Progressive

Bits/(Pixel*Frame) : 0.154

Stream size : 15.9 MiB (87%)

Writing library : x264 core 148 r2721 72d53ab

Encoding settings : cabac=1 / ref=8 / deblock=1:0:0 / analyse=0x3:0x133 / me=umh / subme=9 / psy=1 / psy_rd=1.00:0.00 / mixed_ref=1 / me_range=16 / chroma_me=1 / trellis=2 / 8x8dct=1 / cqm=0 / deadzone=21,11 / fast_pskip=0 / chroma_qp_offset=-2 / threads=12 / lookahead_threads=1 / sliced_threads=0 / nr=0 / decimate=1 / interlaced=0 / bluray_compat=0 / constrained_intra=0 / bframes=3 / b_pyramid=2 / b_adapt=2 / b_bias=0 / direct=3 / weightb=1 / open_gop=0 / weightp=2 / keyint=250 / keyint_min=23 / scenecut=40 / intra_refresh=0 / rc_lookahead=60 / rc=crf / mbtree=1 / crf=19.0 / qcomp=0.60 / qpmin=0 / qpmax=69 / qpstep=4 / ip_ratio=1.40 / aq=1:1.00

Language : English

Default : Yes

Forced : No

Color range : Limited

Matrix coefficients : BT.709

Audio

ID : 2

Format : AAC

Format/Info : Advanced Audio Codec

Format profile : LC

Codec ID : A_AAC

Duration : 2 min 4 s

Bit rate : 151 kb/s

Channel(s) : 2 channels

Channel positions : Front: L R

Sampling rate : 48.0 kHz

Frame rate : 46.875 FPS (1024 spf)

Compression mode : Lossy

Delay relative to video : 9 ms

Stream size : 2.24 MiB (12%)

Title : English AAC-LC 151 kbps

Language : English

Default : Yes

Forced : No

Text #1

ID : 3

Format : UTF-8

Codec ID : S_TEXT/UTF8

Codec ID/Info : UTF-8 Plain Text

Duration : 2 min 0 s

Bit rate : 109 b/s

Count of elements : 48

Stream size : 1.61 KiB (0%)

Title : English SDH

Language : English

Default : No

Forced : No

Text #2

ID : 4

Format : UTF-8

Codec ID : S_TEXT/UTF8

Codec ID/Info : UTF-8 Plain Text

Duration : 1 min 37 s

Bit rate : 86 b/s

Count of elements : 39

Stream size : 1.02 KiB (0%)

Title : Polish

Language : Polish

Default : No

Forced : No

Screens.png

Click Image To View Full Size

EFnYZ.th.jpg

Click To View Screenshot

Click To View Screenshot

Click To View Screenshot

Download torrent

Finding.Dory.Marine.Life.Interviews.2016.BDRip.x264-FLAME torrent

Description

Finding.Dory.Marine.Life.Interviews.2016.BDRip.x264-FLAME

IMDb: http://www.imdb.com/title/tt6233934/

t52z.png

General

(Duration): 2mn 4s

(FileSize): 18.2 MiB

Audio

(Format): AAC – Advanced Audio Codec

(Codec): AAC LC

Video

(Format): AVC – Advanced Video Codec

(Media): video/H264

(Format): x264

(Resolution): 720×404 px

(AspectRatio): 16:9

(FrameRate): 23.976 fps

tzTE.png

(Click to enlarge)

axKPX.th.jpg axPiw.th.jpg axgGL.th.jpg ax4bp.th.jpg axMRC.th.jpg axQjG.th.jpg

Download torrent

A.Sunday.Kind.of.Love.2015.720p.BluRay.x264-GUACAMOLE[PRiME] torrent

Description

A.Sunday.Kind.of.Love.2015.720p.BluRay.x264-GUACAMOLE[PRiME]

ImDb: http://www.imdb.com/title/tt3611112

Info.png

Complete name : gua-sundaykindoflove-720p[PRiME].mkv

Format : Matroska

Format version : Version 4 / Version 2

File size : 4.37 GiB

Duration : 1 h 32 min

Overall bit rate : 6 730 kb/s

Encoded date : UTC 2016-11-26 01:42:44

Writing application : mkvmerge v9.0.1 (‘Obstacles’) 64bit

Writing library : libebml v1.3.3 + libmatroska v1.4.4

Video

ID : 1

Format : AVC

Format/Info : Advanced Video Codec

Format profile : [email protected]/* */

Format settings, CABAC : Yes

Format settings, ReFrames : 5 frames

Codec ID : V_MPEG4/ISO/AVC

Duration : 1 h 32 min

Bit rate : 5 220 kb/s

Width : 1 280 pixels

Height : 720 pixels

Display aspect ratio : 16:9

Frame rate mode : Constant

Frame rate : 23.976 (24000/1001) FPS

Color space : YUV

Chroma subsampling : 4:2:0

Bit depth : 8 bits

Scan type : Progressive

Bits/(Pixel*Frame) : 0.236

Stream size : 3.39 GiB (78%)

Writing library : x264 core 148 r2705 3f5ed56

Encoding settings : cabac=1 / ref=5 / deblock=1:0:0 / analyse=0x3:0x113 / me=umh / subme=7 / psy=1 / psy_rd=1.00:0.00 / mixed_ref=1 / me_range=16 / chroma_me=1 / trellis=1 / 8x8dct=1 / cqm=0 / deadzone=21,11 / fast_pskip=0 / chroma_qp_offset=-2 / threads=12 / lookahead_threads=2 / sliced_threads=0 / nr=0 / decimate=1 / interlaced=0 / bluray_compat=0 / constrained_intra=0 / bframes=3 / b_pyramid=2 / b_adapt=2 / b_bias=0 / direct=3 / weightb=1 / open_gop=0 / weightp=2 / keyint=250 / keyint_min=23 / scenecut=40 / intra_refresh=0 / rc_lookahead=50 / rc=2pass / mbtree=1 / bitrate=5220 / ratetol=1.0 / qcomp=0.60 / qpmin=0 / qpmax=69 / qpstep=4 / cplxblur=20.0 / qblur=0.5 / ip_ratio=1.40 / aq=1:1.00

Default : Yes

Forced : No

Audio

ID : 2

Format : DTS

Format/Info : Digital Theater Systems

Mode : 16

Format settings, Endianness : Big

Codec ID : A_DTS

Duration : 1 h 32 min

Bit rate mode : Constant

Bit rate : 1 509 kb/s

Channel(s) : 6 channels

Channel positions : Front: L C R, Side: L R, LFE

Sampling rate : 48.0 kHz

Frame rate : 93.750 FPS (512 spf)

Bit depth : 24 bits

Compression mode : Lossy

Stream size : 1 004 MiB (22%)

Language : English

Default : Yes

Forced : No

Screens.png

Click Image To View Full Size

E1yBh.th.jpg

Click To View Screenshot

Click To View Screenshot

Click To View Screenshot

Download torrent

Ben.Hur.2016.BDRip.x264-GECKOS torrent

Description

Ben.Hur.2016.BDRip.x264-GECKOS

IMDb: http://www.imdb.com/title/tt2638144/

MV5BMjQ2NzYxMDQ2OV5BMl5BanBnXkFtZTgwMDk2MzczOTE@._V1_SX300.jpg

t52z.png

General

(Duration): 2h 4mn

(FileSize): 1.04 GiB

Audio

(Format): AAC – Advanced Audio Codec

(Codec): AAC LC

Video

(Format): AVC – Advanced Video Codec

(Media): video/H264

(Format): x264

(Resolution): 720×300 px

(AspectRatio): 2.40:1

(FrameRate): 23.976 fps

tzTE.png

(Click to enlarge)

ax27k.th.jpg axAjm.th.jpg axbII.th.jpg axoW5.th.jpg axutW.th.jpg axCZx.th.jpg

Download torrent

Ben.Hur.2016.1080p.BluRay.x264-GECKOS[EtHD] torrent

Description

EtHD – ExtraTorrent High-Definition Movies

4a0140b37d84c5203709a280dd25b9ca.jpg

Ben.Hur.2016.1080p.BluRay.x264-GECKOS

http://www.imdb.com/title/tt2638144/

[Video Bitrate]:………….: 10.0mb/s

[Duration]:………….: 2 h 4 min

[Video Codec]:………….: AVC

[Resolution]:………….: 1920×800 px

[Aspect Ratio]:………….: 2.40:1

[Audio Codec]:………….: DTS

[Audio Bitrate]:………….: 1509kb/s

[Audio Channels]:………….: 5.1ch

[Audio Language]:………….: English

Genre …………………..: Action | Adventure | Drama | History

#EtHD -> To avoid fakes, ALWAYS check that the torrent was added by EtHD

http://extratorrent.cc/

Help us by donating with Bitcoin: 1MbtePmWNM13SEkQgmxF6RSvfaXugF7rpz

Screens…

c68a8009944d6be470b26e64d0a21a27.th.jpg

3437a0bdd93a0cee537ac36e5b2cec48.th.jpg

6c05fb86dbc087a5d13096fd37b7dc3a.th.jpg

dc8fad6b741c422b05fe7877c65f54ca.th.jpg

2fde34121e22a347fe6c393fa7f64ec3.th.jpg

Download torrent

Ben.Hur.2016.720p.BluRay.x264-GECKOS[EtHD] torrent

Description

EtHD – ExtraTorrent High-Definition Movies

2ec884fc6825a1248d727110f81aff33.jpg

Ben.Hur.2016.720p.BluRay.x264-GECKOS

http://www.imdb.com/title/tt2638144/

[Video Bitrate]:………….: 6272 kbps

[Duration]:………….: 2h 4mn

[Video Codec]:………….: AVC

[Resolution]:………….: 1280×536 px

[Aspect Ratio]:………….: 2.40:1

[Audio Codec]:………….: DTS

[Audio Bitrate]:………….: 1509 kbps

[Audio Channels]:………….: 5.1ch

[Audio Language]:………….: English

Genre …………………..: Action | Adventure | Drama | History

#EtHD -> To avoid fakes, ALWAYS check that the torrent was added by EtHD

http://extratorrent.cc/

Help us by donating with Bitcoin: 1MbtePmWNM13SEkQgmxF6RSvfaXugF7rpz

Screens…

dddef58f4a399378ff4bdb14ed2ff925.th.jpg

79168c34fefcfcaaa23f43a50b8c58fc.th.jpg

838bb5975159725b8ef91c011d7bc76a.th.jpg

731a9fd11f2e6b59566f418b17455330.th.jpg

e2660005c84a8345f6fd233c1f6d51b7.th.jpg

Download torrent

Finding.Dory.Marine.Life.Interviews.2016.720p.BluRay.x264-FLAME[PRiME] torrent

Description

Finding.Dory.Marine.Life.Interviews.2016.720p.BluRay.x264-FLAME[PRiME]

ImDb: http://www.imdb.com/title/tt6233934

Info.png

Complete name : flame-finding.dory.marine.life.interviews.2016.720p.bluray.x264[PRiME].mkv

Format : Matroska

Format version : Version 4 / Version 2

File size : 96.3 MiB

Duration : 2 min 4 s

Overall bit rate : 6 503 kb/s

Encoded date : UTC 2016-11-26 11:28:12

Writing application : mkvmerge v9.4.2 (‘So High’) 64bit

Writing library : libebml v1.3.4 + libmatroska v1.4.5

Video

ID : 1

Format : AVC

Format/Info : Advanced Video Codec

Format profile : [email protected]/* */

Format settings, CABAC : Yes

Format settings, ReFrames : 8 frames

Codec ID : V_MPEG4/ISO/AVC

Duration : 2 min 4 s

Bit rate : 5 000 kb/s

Width : 1 280 pixels

Height : 720 pixels

Display aspect ratio : 16:9

Frame rate mode : Constant

Frame rate : 23.976 (24000/1001) FPS

Color space : YUV

Chroma subsampling : 4:2:0

Bit depth : 8 bits

Scan type : Progressive

Bits/(Pixel*Frame) : 0.226

Stream size : 73.9 MiB (77%)

Writing library : x264 core 148 r2721 72d53ab

Encoding settings : cabac=1 / ref=8 / deblock=1:2:1 / analyse=0x3:0x133 / me=umh / subme=9 / psy=1 / psy_rd=0.50:0.00 / mixed_ref=1 / me_range=16 / chroma_me=1 / trellis=2 / 8x8dct=1 / cqm=0 / deadzone=21,11 / fast_pskip=0 / chroma_qp_offset=-2 / threads=12 / lookahead_threads=1 / sliced_threads=0 / nr=0 / decimate=1 / interlaced=0 / bluray_compat=0 / constrained_intra=0 / bframes=3 / b_pyramid=2 / b_adapt=2 / b_bias=0 / direct=3 / weightb=1 / open_gop=0 / weightp=2 / keyint=250 / keyint_min=23 / scenecut=40 / intra_refresh=0 / rc_lookahead=60 / rc=2pass / mbtree=1 / bitrate=5000 / ratetol=1.0 / qcomp=0.60 / qpmin=10 / qpmax=69 / qpstep=4 / cplxblur=20.0 / qblur=0.5 / ip_ratio=1.40 / aq=1:0.70

Language : English

Default : Yes

Forced : No

Audio

ID : 2

Format : DTS

Format/Info : Digital Theater Systems

Mode : 16

Format settings, Endianness : Big

Codec ID : A_DTS

Duration : 2 min 4 s

Bit rate mode : Constant

Bit rate : 1 509 kb/s

Channel(s) : 6 channels

Channel positions : Front: L C R, Side: L R, LFE

Sampling rate : 48.0 kHz

Frame rate : 93.750 FPS (512 spf)

Bit depth : 24 bits

Compression mode : Lossy

Stream size : 22.3 MiB (23%)

Title : English DTS 1509 kbps

Language : English

Default : Yes

Forced : No

Text #1

ID : 3

Format : UTF-8

Codec ID : S_TEXT/UTF8

Codec ID/Info : UTF-8 Plain Text

Duration : 2 min 0 s

Bit rate : 109 b/s

Count of elements : 48

Stream size : 1.61 KiB (0%)

Title : English SDH

Language : English

Default : No

Forced : No

Text #2

ID : 4

Format : UTF-8

Codec ID : S_TEXT/UTF8

Codec ID/Info : UTF-8 Plain Text

Duration : 1 min 37 s

Bit rate : 86 b/s

Count of elements : 39

Stream size : 1.02 KiB (0%)

Title : Polish

Language : Polish

Default : No

Forced : No

Screens.png

Click Image To View Full Size

EJU1e.th.jpg

Click To View Screenshot

Click To View Screenshot

Click To View Screenshot

Download torrent

Ben.Hur.2016.720p.BluRay.x264-GECKOS[PRiME] torrent

Description

Ben.Hur.2016.720p.BluRay.x264-GECKOS[PRiME]

ImDb: http://www.imdb.com/title/tt2638144

Info.png

Complete name : Ben.Hur.2016.720p.BluRay.x264-GECKOS[PRiME].mkv

Format : Matroska

Format version : Version 4 / Version 2

File size : 5.46 GiB

Duration : 2 h 4 min

Overall bit rate : 6 272 kb/s

Encoded date : UTC 2016-11-26 10:09:05

Writing application : mkvmerge v8.3.0 (‘Over the Horizon’) 64bit

Writing library : libebml v1.3.1 + libmatroska v1.4.2

Video

ID : 1

Format : AVC

Format/Info : Advanced Video Codec

Format profile : [email protected]/* */

Format settings, CABAC : Yes

Format settings, ReFrames : 5 frames

Codec ID : V_MPEG4/ISO/AVC

Duration : 2 h 4 min

Bit rate : 4 762 kb/s

Width : 1 280 pixels

Height : 536 pixels

Display aspect ratio : 2.40:1

Frame rate mode : Constant

Frame rate : 23.976 FPS

Color space : YUV

Chroma subsampling : 4:2:0

Bit depth : 8 bits

Scan type : Progressive

Bits/(Pixel*Frame) : 0.289

Stream size : 4.15 GiB (76%)

Writing library : x264 core 148 r2705 3f5ed56

Encoding settings : cabac=1 / ref=5 / deblock=1:0:0 / analyse=0x3:0x133 / me=umh / subme=7 / psy=1 / psy_rd=1.00:0.00 / mixed_ref=1 / me_range=16 / chroma_me=1 / trellis=1 / 8x8dct=1 / cqm=0 / deadzone=21,11 / fast_pskip=0 / chroma_qp_offset=-2 / threads=12 / lookahead_threads=2 / sliced_threads=0 / nr=0 / decimate=1 / interlaced=0 / bluray_compat=0 / constrained_intra=0 / bframes=3 / b_pyramid=2 / b_adapt=1 / b_bias=0 / direct=1 / weightb=1 / open_gop=0 / weightp=2 / keyint=250 / keyint_min=23 / scenecut=40 / intra_refresh=0 / rc_lookahead=40 / rc=2pass / mbtree=1 / bitrate=4762 / ratetol=1.0 / qcomp=0.60 / qpmin=0 / qpmax=69 / qpstep=4 / cplxblur=20.0 / qblur=0.5 / ip_ratio=1.40 / aq=1:1.00

Language : English

Default : Yes

Forced : No

Audio

ID : 2

Format : DTS

Format/Info : Digital Theater Systems

Mode : 16

Format settings, Endianness : Big

Codec ID : A_DTS

Duration : 2 h 4 min

Bit rate mode : Constant

Bit rate : 1 509 kb/s

Channel(s) : 6 channels

Channel positions : Front: L C R, Side: L R, LFE

Sampling rate : 48.0 kHz

Frame rate : 93.750 FPS (512 spf)

Bit depth : 24 bits

Compression mode : Lossy

Stream size : 1.31 GiB (24%)

Language : English

Default : Yes

Forced : No

Menu

00:00:00.000 : en:00:00:00.000

00:07:03.882 : en:00:07:03.882

00:15:42.942 : en:00:15:42.942

00:19:47.895 : en:00:19:47.895

00:27:25.853 : en:00:27:25.853

00:33:09.362 : en:00:33:09.362

00:41:07.215 : en:00:41:07.215

00:48:20.064 : en:00:48:20.064

00:55:21.652 : en:00:55:21.652

01:05:41.229 : en:01:05:41.229

01:13:15.891 : en:01:13:15.891

01:22:26.900 : en:01:22:26.900

01:31:30.193 : en:01:31:30.193

01:39:55.656 : en:01:39:55.656

01:46:30.801 : en:01:46:30.801

01:54:54.638 : en:01:54:54.638

Screens.png

Click Image To View Full Size

EFHqc.th.jpg

Click To View Screenshot

Click To View Screenshot

Click To View Screenshot

Download torrent

The Choice – La Scelta (2016).H264 Italian.English.Ac3.5.1.sub.Ita.Eng.iCV-MIRCrew torrent

Description

The Choice – La Scelta (2016).H264 Italian.English.Ac3.5.1.sub.Ita.Eng.iCV-MIRCrew

oCo82IVa08d8.png

NO FOUND ONLY ORIGINAL RELEASE

GDNQx1Z.png

My release is always in double track audio italian and Original audio

for select it use VLC or dvd player home

not use wmp

La Scelta – The Choice (2016)

9daabbd21fcda36cc7af325f5a11f4a4.png

imdb_new.png

fGu1rKv.png

DATA USCITA: N.D.

GENERE: Drammatico , Sentimentale

ANNO: 2016

REGIA: Ross Katz

SCENEGGIATURA: Bryan Sipe

FOTOGRAFIA: Alar Kivilo

MONTAGGIO: Joe Klotz

MUSICHE: Marcelo Zarvos

PRODUZIONE: Nicholas Sparks Productions, Safran Company

PAESE: USA

W7kBqiE.png

Alexandra Daddario, Benjamin Walker, Teresa Palmer, Maggie Grace, Tom Welling, Tom Wilkinson

bFK3ggF.png

Travis Parker è un giovane veterinario convinto di non essere destinato alle relazioni a lungo termine. Gabbi è un’affascinante pediatra con tutte le carte in regola per fargli cambiare idea.

48xHWWH.png

Travis and Gabby first meet as neighbors in a small coastal town and wind up in a relationship that is tested by life’s most defining events.

K8bfNTy.png

8e50d1e71c75f69c2cfabf82be9afd2d.png

cad88d2a73a6b2706a2a86e2795f2394.png

b79362ecb1b36012d0f15ef0b52b6ff2.png

026db242712a90e542a731202bf7ba0e.png

aVrMohH.png

Hidden textGeneral

Unique ID : 43390023582209821550396995169797065644 (0x20A49D547D6EA2E846B3DBFD2244CBAC)

Complete name : La Scelta – The Choice (2016).H264.ita.eng.sub.ita.eng.iCV-MIRCrew.mkv

Format : Matroska

Format version : Version 2

File size : 1.68 GiB

Duration : 1h 51mn

Overall bit rate : 2 171 Kbps

Movie name : VISIT www.icv-crew.org

Encoded date : UTC 2016-11-12 12:28:35

Writing application : Lavf54.63.100

Writing library : Lavf54.63.100

COPYRIGHT : robbyrs

Video

ID : 1

Format : AVC

Format/Info : Advanced Video Codec

Format profile : [email protected]/* */

Format settings, CABAC : Yes

Format settings, ReFrames : 2 frames

Codec ID : V_MPEG4/ISO/AVC

Duration : 1h 51mn

Bit rate : 1 270 Kbps

Width : 720 pixels

Height : 300 pixels

Display aspect ratio : 2.40:1

Original display aspect ratio : 2.40:1

Frame rate mode : Variable

Frame rate : 23.976 fps

Color space : YUV

Chroma subsampling : 4:2:0

Bit depth : 8 bits

Scan type : Progressive

Bits/(Pixel*Frame) : 0.245

Stream size : 979 MiB (57%)

Writing library : x264 core 130 r2273

Encoding settings : cabac=1 / ref=2 / deblock=1:0:0 / analyse=0x1:0x131 / me=hex / subme=7 / psy=1 / psy_rd=1.00:0.00 / mixed_ref=0 / me_range=16 / chroma_me=1 / trellis=1 / 8x8dct=0 / cqm=0 / deadzone=21,11 / fast_pskip=1 / chroma_qp_offset=-2 / threads=12 / lookahead_threads=2 / sliced_threads=0 / nr=0 / decimate=1 / interlaced=0 / bluray_compat=0 / constrained_intra=0 / bframes=3 / b_pyramid=0 / b_adapt=1 / b_bias=0 / direct=3 / weightb=1 / open_gop=0 / weightp=2 / keyint=230 / keyint_min=23 / scenecut=40 / intra_refresh=0 / rc_lookahead=40 / rc=2pass / mbtree=1 / bitrate=1270 / ratetol=1.0 / qcomp=0.60 / qpmin=10 / qpmax=69 / qpstep=4 / cplxblur=20.0 / qblur=0.5 / vbv_maxrate=24000 / vbv_bufsize=24000 / nal_hrd=none / ip_ratio=1.40 / aq=1:1.00

Language : English

Default : Yes

Forced : No

DURATION : 01:51:06.702000000

NUMBER_OF_FRAMES : 159841

NUMBER_OF_BYTES : 7960350527

_STATISTICS_WRITING_APP : mkvmerge v8.7.0 (‘All of the above’) 64bit

_STATISTICS_WRITING_DATE_UTC : 2016-11-09 08:22:07

_STATISTICS_TAGS : BPS DURATION NUMBER_OF_FRAMES NUMBER_OF_BYTES

Audio #1

ID : 2

Format : AC-3

Format/Info : Audio Coding 3

Mode extension : CM (complete main)

Codec ID : A_AC3

Duration : 1h 51mn

Bit rate mode : Constant

Bit rate : 448 Kbps

Channel(s) : 6 channels

Channel positions : Front: L C R, Side: L R, LFE

Sampling rate : 48.0 KHz

Bit depth : 16 bits

Compression mode : Lossy

Delay relative to video : 1mn 5s

Stream size : 356 MiB (21%)

Title : AC3 iTA

Language : Italian

Default : No

Forced : No

DURATION : 01:50:58.880000000

NUMBER_OF_FRAMES : 208090

NUMBER_OF_BYTES : 532710400

_STATISTICS_WRITING_APP : mkvmerge v8.7.0 (‘All of the above’) 64bit

_STATISTICS_WRITING_DATE_UTC : 2016-11-09 08:22:07

_STATISTICS_TAGS : BPS DURATION NUMBER_OF_FRAMES NUMBER_OF_BYTES

Audio #2

ID : 3

Format : AC-3

Format/Info : Audio Coding 3

Mode extension : CM (complete main)

Codec ID : A_AC3

Duration : 1h 51mn

Bit rate mode : Constant

Bit rate : 448 Kbps

Channel(s) : 6 channels

Channel positions : Front: L C R, Side: L R, LFE

Sampling rate : 48.0 KHz

Bit depth : 16 bits

Compression mode : Lossy

Delay relative to video : 1mn 5s

Stream size : 356 MiB (21%)

Title : AC3 ENG

Language : English

Default : No

Forced : No

DURATION : 01:51:06.720000000

NUMBER_OF_FRAMES : 208335

NUMBER_OF_BYTES : 533337600

_STATISTICS_WRITING_APP : mkvmerge v8.7.0 (‘All of the above’) 64bit

_STATISTICS_WRITING_DATE_UTC : 2016-11-09 08:22:07

_STATISTICS_TAGS : BPS DURATION NUMBER_OF_FRAMES NUMBER_OF_BYTES

Text #1

ID : 4

Format : ASS

Codec ID : S_TEXT/ASS

Codec ID/Info : Advanced Sub Station Alpha

Compression mode : Lossless

Title : FORCED

Language : Italian

Default : Yes

Forced : No

DURATION : 01:09:16.083000000

NUMBER_OF_FRAMES : 9

NUMBER_OF_BYTES : 214

_STATISTICS_WRITING_APP : mkvmerge v8.7.0 (‘All of the above’) 64bit

_STATISTICS_WRITING_DATE_UTC : 2016-11-09 08:22:07

_STATISTICS_TAGS : BPS DURATION NUMBER_OF_FRAMES NUMBER_OF_BYTES

Text #2

ID : 5

Format : ASS

Codec ID : S_TEXT/ASS

Codec ID/Info : Advanced Sub Station Alpha

Compression mode : Lossless

Title : REGULAR

Language : Italian

Default : No

Forced : No

DURATION : 01:43:48.028000000

NUMBER_OF_FRAMES : 1281

NUMBER_OF_BYTES : 47150

_STATISTICS_WRITING_APP : mkvmerge v8.7.0 (‘All of the above’) 64bit

_STATISTICS_WRITING_DATE_UTC : 2016-11-09 08:22:07

_STATISTICS_TAGS : BPS DURATION NUMBER_OF_FRAMES NUMBER_OF_BYTES

Text #3

ID : 6

Format : ASS

Codec ID : S_TEXT/ASS

Codec ID/Info : Advanced Sub Station Alpha

Compression mode : Lossless

Title : REGULAR

Language : English

Default : No

Forced : No

DURATION : 01:49:36.403000000

NUMBER_OF_FRAMES : 1781

NUMBER_OF_BYTES : 56489

_STATISTICS_WRITING_APP : mkvmerge v8.7.0 (‘All of the above’) 64bit

_STATISTICS_WRITING_DATE_UTC : 2016-11-09 08:22:07

_STATISTICS_TAGS : BPS DURATION NUMBER_OF_FRAMES NUMBER_OF_BYTES

Menu

00:00:00.000 : :00:00:00.000

00:04:37.277 : :00:04:37.277

00:12:09.520 : :00:12:09.520

00:20:26.976 : :00:20:26.976

00:27:49.042 : :00:27:49.042

00:34:24.396 : :00:34:24.396

00:40:54.077 : :00:40:54.077

00:47:25.050 : :00:47:25.050

00:54:27.639 : :00:54:27.639

00:58:57.993 : :00:58:57.993

01:06:32.238 : :01:06:32.238

01:14:04.106 : :01:14:04.106

01:20:10.013 : :01:20:10.013

01:28:19.044 : :01:28:19.044

01:35:19.547 : :01:35:19.547

01:40:33.069 : :01:40:33.069

Download torrent

Expedition.Unknown.Series.3.The.Lost.Colony.of.Roanok.720p.HDTV.x264.AAC .mp4 torrent

Description

Expedition Unknown Series 3: The Lost Colony of Roanok

History Documentary hosted by Josh Gates, published by Travel Channel UK in 2016 – English narration

Expedition-Unknown-Series-3-The-Lost-Colony-of-Roanok-Cover.jpg

Information

Expedition Unknown Series 3: The Lost Colony of Roanok

Josh Gates joins leading archeologists as they investigate America’s first missing-persons case, The Lost Colony of Roanoke. Following newly discovered clues; he’ll reach new heights as he digs for answers to this over 400-year-old mystery.

Screenshots

[img]http://docuwiki.net/thumb.php?f=Expedition-Unknown-Series-3-The-Lost-Colony-of-Roanok-Screen0.jpg&w=120[/img]

[img]http://docuwiki.net/thumb.php?f=Expedition-Unknown-Series-3-The-Lost-Colony-of-Roanok-Screen1.jpg&w=120[/img]

[img]http://docuwiki.net/thumb.php?f=Expedition-Unknown-Series-3-The-Lost-Colony-of-Roanok-Screen2.jpg&w=120[/img]

[img]http://docuwiki.net/thumb.php?f=Expedition-Unknown-Series-3-The-Lost-Colony-of-Roanok-Screen3.jpg&w=120[/img]

[img]http://docuwiki.net/thumb.php?f=Expedition-Unknown-Series-3-The-Lost-Colony-of-Roanok-Screen4.jpg&w=120[/img]

[img]http://docuwiki.net/thumb.php?f=Expedition-Unknown-Series-3-The-Lost-Colony-of-Roanok-Screen5.jpg&w=120[/img]

[img]http://docuwiki.net/thumb.php?f=Expedition-Unknown-Series-3-The-Lost-Colony-of-Roanok-Screen6.jpg&w=120[/img]

[img]http://docuwiki.net/thumb.php?f=Expedition-Unknown-Series-3-The-Lost-Colony-of-Roanok-Screen7.jpg&w=120[/img]

[img]http://docuwiki.net/thumb.php?f=Expedition-Unknown-Series-3-The-Lost-Colony-of-Roanok-Screen8.jpg&w=120[/img]

[img]http://docuwiki.net/thumb.php?f=Expedition-Unknown-Series-3-The-Lost-Colony-of-Roanok-Screen9.jpg&w=120[/img]

[img]http://docuwiki.net/thumb.php?f=Expedition-Unknown-Series-3-The-Lost-Colony-of-Roanok-Screen10.jpg&w=120[/img]

[img]http://docuwiki.net/thumb.php?f=Expedition-Unknown-Series-3-The-Lost-Colony-of-Roanok-Screen11.jpg&w=120[/img]

Technical Specs

* Video Codec: x264 CABAC [email protected]/* */

* Video: Bitrate: CRF-22 (~3664 Kbps)

* Video Aspect Ratio: 1280 x 720

* Video Resolution: 1.778 (16:9)

* Audio Codec: AAC LC

* Audio: English

* Audio Bitrate: 160 kb/s VBR 48 KHz

* Audio Channels: Stereo 2

* Run-Time: 43 mins

* Framerate: 29.412 fps

* Number of Parts: 1

* Container Mp4

* Part Size: 1.12 GB

* Source: HDTV

* Encoded by: Harry65

Release Notes

Merged English Subtitles

Links

1) Further Information

* www.travelchannel.com

2) Related Documentaries

* Expedition Unknown Series 3: Plummers Gold

* Expedition Unknown Series 3: The Vanished Empire

* Expedition Unknown Series 3: The Lost Tomb of Attila the Hun

* Expedition Unknown Series 2: Lost Mexican City

* Expedition Unknown Series 2: Hitlers Atomic Secrets

* Expedition Unknown Series 2: Incan Kings Mummy

* Expedition Unknown Series 2: Nazi Gold Train

* Expedition Unknown: Series 1

* Expedition Unknown: Series 2

Download torrent