Dhanalakshmi Talupu Tadithe (2015) – Telugu – WebRip – X264 – 1CD [Team Jaffa] torrent

Description

Download torrent

Vanished.Left.Behind.Next.Generation.2016.1080p.BRRip.x264.AAC-ETRG torrent

Description

NewBanner20152.md.png

04f688e5b854813304307c96ad2ab585.jpg

53b1a870a9515.png

When a billion people around the globe suddenly vanish and chaos engulfs the nation — headstrong 15-year-old Gabby is thrust into adulthood way too soon. The event forces Gabby, along with her younger sister Claire and the two teen boys vying for Gabby’s affection, Josh and Flynn – to try to figure out what has happened and how they fit into this dangerous new world.

53b1a87122294.png

Amber Frank :… Gabby Harlow (as Amber Montana)

Mason Dye :… Josh Jackson

Dylan Sprayberry :… Flynn

Tom Everett Scott :… Damon

53b1a87034fbd.jpg

Video:-

Format : MP4 / x264 / [email protected]/* */

Duration : 01:28:24

Bitrate : 2000 Kbps

Resolution = (Width/Height) : 1920×1040 pixels

Frame Rate : 23,976 fps

Audio:-

Format : AAC

Bitrate : 96 Kbps

Channels : 2 Channels

Sample Rate : 48 KHz

Language : English

Release info:-

Encoded/Released By : Ozlem / ETRG

Title/Year : Vanished Left Behind Next Generation / 2016

File Size : 1.29 GiB

Genre : Adventure

Source : Vanished Left Behind Next Generation 2016 1080p BluRay DTS x264-THUGLiNE (Thank You)

Subtitles : N/A

IMDB : http://www.imdb.com/title/tt4661680/

53b1a86f7b04a.png

15611a7cf8c754bed12159e8a67239fa.th.jpg c1ef9e93d216e73db8bb83a58fe0ffeb.th.jpg e2b3ed7f2555de900e7af3fd0b155a44.th.jpg 7916f4ba4728c9d25ee52fd0d5df03ae.th.jpg 85dae30799dc882ea2089ab859e7122c.th.jpg e09f15fe2f1db44aa6e04093627cb093.th.jpg

Note: This movie can be watched on TV,PC,tablets and phones with high quality.

If you have any problems with video/audio , Please update K Lite Mega Codec pack.

Tested on MPC,VLC,PS 3/4,PSP,XBOX 360,iTunes,ipad2,ipad mini,iphone 4/5S/6,Samsung Galaxy S5/S6/S7 EDGE and Gear VR,Samsung/LG/Vestel/SONY/Panasonic/Philips/Sharp/Toshiba/Beko/Arçelik/Sunny Smart TV

U can Follow Us on F a c e b o o k ==> encoder ozlem

https://www.facebook.com/ozlem.torrents

Please click on this link to reach all of ozlem encodes

Make sure it is Genuine ETRG release @ ExtraTorrent.cc or from our Trusted Accounts elswhere

Help us by donating with Bitcoin: 1MbtePmWNM13SEkQgmxF6RSvfaXugF7rpz

etrg.png

Ozlem2.png

Download torrent

Giuseppe Verdi – Macbeth (2006) [DVD9 NTSC] torrent

Description

Giuseppe Verdi – Macbeth (2006) [DVD9 NTSC]

Actors: Teatro Regio Di Parma, Bruno Bartoletti, Enrico Iori, Leo Nucci, Sylvie Valayre

Director: Liliana Cavani

Format: Classical, DVD Audio, NTSC

Audio: Italian

Lingua: Italian

Subtitles: German, Enghlish, Italian, Spanish, French

Format immage: 1.78:1

Numbero disc: 1

Studio: Tdk Mediactive

Date version DVD: 20 lug. 2006

Lenght: 127 minuti

rec. live Teatro Regio di Parma, June 2006

.: Tracklist :.

By all means relocate an opera to a different period but please ensure that the new setting adds to its meaning and that the law of unintended consequences does not take over. This production brings the setting forward to a war-torn theatre of the 1940s, with an audience on the stage seated in theatre wings and the opera itself taking place between them.

There is an enormously evocative opening with the camera focus on the sky above ‘the theatre’, search lights against a glowing fiery sky, the noise of falling bombs and the dreaded wail of the air-raid siren. The camera pans down into ‘the theatre’ and onto the stage for the opening prelude. An orange glow and white flashes are seen through smoke at the rear stage. Apart from a repeat at the end of the first scene, the occasional orange glow with smoke and a fantastic silhouetted back-drop for the chorus of refugees at the start of Act IV against an almost similar sky, that is it.

At the opera’s conclusion there is no switching off searchlights, no return to blue skies and no relieving all-clear siren. Nothing. Just the end of the opera on the stage. I do not understand how this setting advances our understanding or appreciation or the relevance of the opera to today – although why it must have a relevance is itself irrelevant because it can be watched for its own sake without any need for justification. Greed for power, like war, is open-ended? Maybe. Maybe not.

The unintended consequence is the claustrophobic appearance of the stage; and the very odd looking consequence is that the on-stage theatre audience are part of the opera chorus and therefore sing as appropriate. A kind of sing-along with Verdi. Perish the thought.

So what of the setting of the opera within the theatre? The sets themselves do not help – the costumes seem to vary in period and country but say sixteenth/seventeenth century. Does this suggest that the opera is pan-European and spans periods? Maybe. Maybe not.

From the opening measured slow bars, my first thought was that we would be lucky to see all the opera on the one disc: we do, but with no supplementary (flummery of) interviews, comments or explanations.

The measured orchestral playing is fine as such but to me it lacks the taut power that pulls the audience forward in their seats and involves them in the performance. Indeed that is my really serious disappointment: I did not feel involved with what was happening on stage.

This was not helped by the opening setting for the witches: a public washing fountain with laundry sheets hung across the back-stage which Macbeth and Banco have to push aside to enter. How undignified. How un-Thane like. These are no mystical hags of the nether regions. These are plain simple washerwomen. That said you would not hear washerwomen – plus the on-stage theatre audience – sing as crisply or enunciate as clearly. The chorus is on great form as indeed they are throughout – particularly for the refugees’ chorus at the start of the last Act – a real emotion jerker.

The casting of the then 64 year old Leo Nucci as Macbeth with the so much younger Sylvie Valayre as his wife adds an interesting dimension: the power behind the throne being the younger-model driving force. And what drive Valayre gives it. She positively powerhouses her way through her opening scenes. Of course, she fails dismally Verdi’s requirements of looking “… ugly and malignant …”. Of Lady Macbeth’s voice he requested it to sound “… rough, hollow and stifled …”. In her opening, after reading the letter, she does manage some unsmooth sounds on high with some (deliberate?) note insecurity. Or tutti sorgete is also superbly sung, but, whilst she is singing, she is play-acting with the dwarf who brought the letter to her. The effect of her sung, scheming, evil intent is reduced if not lost in the unnecessary and distracting playful charade.

Conversely, leaving Macbeth on stage sprawled on his bed, for her famed aria La luce langue enables her to convert it to grand effect into an aria of fearsome body-stroking seduction with potential cruelty so near the surface.

Her other great scene (the sleepwalking) is marred by its pacing with orchestral support somewhat lacking in dynamics and, curiously, too smooth. The sighing and silences become blurred. However, pace Verdi, because here her wonderfully deep smooth piano is perfectly apposite. In this scene both Tramonti (her lady-in-waiting) and Turco (the doctor) give particularly sensitive support.

Nothing overwhelms Leo Nucci (Macbeth): uncertainty in plenty with occasional instability in this character; vocal security if some unsurprising dryness. This is an elder ‘warts and all’ Macbeth. Where I think his performance is disappointing is the infrequent use of piano. He really does not need to prove that the years have not diminished his power. His duet with Iori, lacking in dynamics, seems to miss the mystery; his dagger ‘vision’, with little piano in sight (or ear-shot) would waken the whole castle. However his final aria Pietà, rispetto, amore ‘stops the show’ such that he gently and so very graciously, acknowledges the entirely justified long applause.

The important interaction between Nucci and Valayre is well controlled and handled. Her youthful probing sound contrasts with, and balances, his firm baritone. Their duets are particularly well sung.

Iori’s round bass is used by him very effectively: closed down in his duet with Nucci but opened out in his interaction with Iuliano (Macduff) and with compelling colouring in his aria come dal ciel precipita. Iuliano is a smooth tenor. His gentle sound does not suggest to me that this Thane will wreak vengeance and destruction: well sung with a fine line but no real vitriol. This Macduff is just a nice guy. Pascoli does suggest a commanding presence and vocal authority for the avenging son. It’s a comparatively small but important role that Pascoli carries well.

I wish I could enjoy the ballet more, but to me the Act three contortions at the fountain are a tedious, inappropriately erotic, intermission. However, as the female chorus of witches are vocally very good indeed, so are the men with their precisely staccato-ed murder scene for Banco. As I have said, the chorus as a whole is outstanding for the refugees scene; it’s vocally and visually gripping.

Finally, and returning to inconsistencies (as with the opening and closing shots) if the dagger and the eight kings are real on stage then should not the ghost of Banco be also: Verdi demanded that as a ghost he should wear a veil and his neck wounds should be visible. This ghost is left to our imagination. Not difficult. Not consistent but with the stage layout, not so very obvious. This lack of focus on Macbeth’s chair is emphasised by the overfull stage and the camera-work – or more precisely editing: disappointing. Shots are held for a very short period indeed before cutting to a different view. Sadly the same is true for most scenes: as if the editor considers that we have a very limited attention span. In fact it only serves to distract and irritate – or it did this reviewer.

Whilst there are some features of this production that are outstanding, the overall impression is their isolation.

.: Other Files :.

log+cue+m3u+cover

Download torrent

Suicide Squad (2016) Extended Cut 1080p Untouched BluRay REMUX AVC TrueHD Atmos 7.1 [DSRG] torrent

Description

suicide_squad_cover_68.jpg

Video

ID : 1

Format : AVC

Format/Info : Advanced Video Codec

Format profile : [email protected]/* */

Format settings, CABAC : Yes

Format settings, ReFrames : 4 frames

Codec ID : V_MPEG4/ISO/AVC

Duration : 2 h 14 min

Bit rate mode : Variable

Bit rate : 24.8 Mb/s

Maximum bit rate : 30.0 Mb/s

Width : 1 920 pixels

Height : 1 080 pixels

Display aspect ratio : 16:9

Frame rate mode : Constant

Frame rate : 23.976 (24000/1001) FPS

Color space : YUV

Chroma subsampling : 4:2:0

Bit depth : 8 bits

Scan type : Progressive

Bits/(Pixel*Frame) : 0.500

Stream size : 23.4 GiB (85%)

Title : MPEG-4 AVC Video / 24997 kbps / 1080p / 23.976 fps / 16:9 / High Profile 4.1

Language : English

Default : Yes

Forced : No

Audio #1

ID : 2

Format : Atmos / TrueHD

Codec ID : A_TRUEHD

Duration : 2 h 14 min

Bit rate mode : Variable

Bit rate : 3 758 kb/s

Maximum bit rate : 5 976 kb/s

Channel(s) : Object Based / 8 channels

Channel positions : Object Based / Front: L C R, Side: L R, Back: L R, LFE

Sampling rate : / 48.0 kHz

Frame rate : 1 200.000 FPS (40 spf)

Compression mode : Lossless

Stream size : 3.53 GiB (13%)

Title : Dolby TrueHD Audio / 7.1 / 48 kHz / 3758 kbps / 24-bit

Language : English

Default : Yes

Forced : No

Audio #2

ID : 3

Format : AC-3

Format/Info : Audio Coding 3

Mode extension : CM (complete main)

Format settings, Endianness : Big

Codec ID : A_AC3

Duration : 2 h 14 min

Bit rate mode : Constant

Bit rate : 384 kb/s

Channel(s) : 6 channels

Channel positions : Front: L C R, Side: L R, LFE

Sampling rate : 48.0 kHz

Frame rate : 31.250 FPS (1536 spf)

Bit depth : 16 bits

Compression mode : Lossy

Stream size : 370 MiB (1%)

Title : Compatability Track / Dolby Digital 5.1-EX / 48 kHz / 384 kbps / DN -4dB

Language : English

Default : No

Forced : No

Text #1

ID : 4

Format : PGS

Codec ID : S_HDMV/PGS

Codec ID/Info : Picture based subtitle format used on BDs/HD-DVDs

Duration : 2 h 13 min

Bit rate : 33.1 kb/s

Count of elements : 3648

Stream size : 31.8 MiB (0%)

Title : SDH

Language : English

Default : No

Forced : No

Text #2

ID : 5

Format : PGS

Codec ID : S_HDMV/PGS

Codec ID/Info : Picture based subtitle format used on BDs/HD-DVDs

Duration : 2 h 14 min

Bit rate : 24.1 kb/s

Count of elements : 2866

Stream size : 23.1 MiB (0%)

Language : Dutch

Default : No

Forced : No

Text #3

ID : 6

Format : PGS

Codec ID : S_HDMV/PGS

Codec ID/Info : Picture based subtitle format used on BDs/HD-DVDs

Duration : 2 h 14 min

Bit rate : 25.8 kb/s

Count of elements : 3112

Stream size : 24.7 MiB (0%)

Language : French

Default : No

Forced : No

Text #4

ID : 7

Format : PGS

Codec ID : S_HDMV/PGS

Codec ID/Info : Picture based subtitle format used on BDs/HD-DVDs

Duration : 2 h 13 min

Bit rate : 37.1 kb/s

Count of elements : 3774

Stream size : 35.5 MiB (0%)

Language : German

Default : No

Forced : No

Text #5

ID : 8

Format : PGS

Codec ID : S_HDMV/PGS

Codec ID/Info : Picture based subtitle format used on BDs/HD-DVDs

Duration : 2 h 14 min

Bit rate : 32.0 kb/s

Count of elements : 3702

Stream size : 30.7 MiB (0%)

Language : Italian

Default : No

Forced : No

Text #6

ID : 9

Format : PGS

Codec ID : S_HDMV/PGS

Codec ID/Info : Picture based subtitle format used on BDs/HD-DVDs

Duration : 2 h 7 min

Bit rate : 19.3 kb/s

Count of elements : 3048

Stream size : 17.6 MiB (0%)

Language : Japanese

Default : No

Forced : No

Text #7

ID : 10

Format : PGS

Codec ID : S_HDMV/PGS

Codec ID/Info : Picture based subtitle format used on BDs/HD-DVDs

Duration : 2 h 14 min

Bit rate : 27.4 kb/s

Count of elements : 3006

Stream size : 26.3 MiB (0%)

Language : Spanish

Default : No

Forced : No

Menu

00:00:00.000 : en:Chapter 1

00:09:08.506 : en:Chapter 2

00:20:22.972 : en:Chapter 3

00:31:14.706 : en:Chapter 4

00:41:04.879 : en:Chapter 5

00:52:21.805 : en:Chapter 6

01:04:48.843 : en:Chapter 7

01:21:12.743 : en:Chapter 8

01:32:11.943 : en:Chapter 9

01:42:57.671 : en:Chapter 10

01:50:58.652 : en:Chapter 11

02:04:04.812 : en:Chapter 12

Screenshots:

dad1d83a7c84cb02a71a085fca69fe47.jpg

c87d06bee10e1d062ecbf9813f005277.jpg

Download torrent

Bollywood Diaries (2016) – 720p – WebHD-Rip – Hindi – x264 – AAC – 2.0 – Mafiaking – M2Tv torrent

Description

CLICK HERE TO CHECK MY ALL OTHER UPLOADS

Bollywood Diaries (2016) – 720p – WebHD-Rip – Hindi – x264 – AAC – 2.0 – Mafiaking – M2Tv

-=Extreme Seeded=-

M2tv.png

bollywood-diaries-trailer-2.jpg

Infoo.png

Quote:

26jymSt.jpg

Ratings: 5.9/10

Genere: Drama

General

Unique ID : 244145825776124243123354721963483905681 (0xB7ACC6920AFF398ABEEED46E4E68BE91)

Complete name : Bollywood Diaries (2016) – 720p – WebHD-Rip – Hindi – x264 – AAC – 2.0 – Mafiaking – M2Tv.mkv

Format : Matroska

Format version : Version 4 / Version 2

File size : 943 MiB

Duration : 1 h 56 min

Overall bit rate : 1 136 kb/s

Movie name : Bollywood Diaries (2016) – 720p – WebHD-Rip – Hindi – x264 – AAC – 2.0 – Mafiaking – M2Tv

Encoded date : UTC 2016-11-29 16:08:12

Writing application : mkvmerge v7.0.0 (‘Where We Going’) 32bit built on Jun 9 2014 15:08:34

Writing library : libebml v1.3.0 + libmatroska v1.4.1

Video

ID : 1

Format : AVC

Format/Info : Advanced Video Codec

Format profile : [email protected]/* */

Format settings, CABAC : Yes

Format settings, ReFrames : 3 frames

Codec ID : V_MPEG4/ISO/AVC

Duration : 1 h 56 min

Bit rate : 975 kb/s

Width : 1 280 pixels

Height : 544 pixels

Display aspect ratio : 2.35:1

Frame rate mode : Constant

Frame rate : 24.000 FPS

Color space : YUV

Chroma subsampling : 4:2:0

Bit depth : 8 bits

Scan type : Progressive

Bits/(Pixel*Frame) : 0.058

Stream size : 809 MiB (86%)

Title : Mafiaking

Language : Hindi

Default : Yes

Forced : No

Audio

ID : 2

Format : AAC

Format/Info : Advanced Audio Codec

Format profile : LC

Codec ID : A_AAC

Duration : 1 h 56 min

Bit rate : 160 kb/s

Channel(s) : 2 channels

Channel positions : Front: L R

Sampling rate : 44.1 kHz

Frame rate : 43.066 FPS (1024 spf)

Compression mode : Lossy

Stream size : 133 MiB (14%)

Title : Mafiaking

Language : Hindi

Default : Yes

Forced : No

SAMPLE WITH IN TORRENT

screenshots-icon.png

**To View Image In Full Size Click on Thumbnails**

125b54.md.png

2e3fb4.md.png

382add.md.png

422ce6.md.png

504c2f.md.png

6db1c5.md.png

772568.md.png

8c2c8f.md.png

948479.md.png

1037453.md.png

112c6f7.md.png

12508f8.md.png

13.md.png

Thanks DDR For Source.

Respects To ::- SaM,oziman, And All The Staff’s Of Extratorrent!!!

Download torrent

Il.Primo.Film.Dei.Fratelli.Lumiere.The.Lumiere.Brothers.First.Films.(1895).H264.Eng.Ac3.2.0.iCV-MIRCrew torrent

Description

Il.Primo.Film.Dei.Fratelli.Lumiere.The.Lumiere.Brothers.First.Films.(1895).H264.Eng.Ac3.2.0.iCV-MIRCrew

oCo82IVa08d8.png

NO FOUND ONLY ORIGINAL RELEASE

20ac77acbeb2a32d0bbaf399ed90df8d.png

For select audio use VLC or dvd player home

[size=36pt]The Lumiere Brothers First Films

(1895)[/size]

1713a50b027f792b421a9dab08591919.png

36b1ce8edb8756e5791c08a4fa6556da.jpg

imdb_new.png

b0b7d02dca1600037be7b29e5d743f4c.png

   DATA USCITA: 1996

   GENERE: Storia

   ANNO: 1895

   REGIA: Antoine Lumière, Auguste Lumière

   SCENEGGIATURA:

  NARRATORE: Bertrand Tavernier

   FOTOGRAFIA:

   MONTAGGIO: Thierry Fremaux

   MUSICHE: Stuart Oderman

   PRODUZIONE:  

   DISTRIBUZIONE:

   PAESE: USA

   DURATA: 61 Min

651b66f749231b1683e4020547687922.png

Mrs. Auguste Lumiere, Antoine Lumière, Auguste Lumière, Félicien Trewey, M. Winckler

478c1ac8eccbc71d598d3c102c789e7f.png

Una raccolta di cortometraggi realizzati dai fratelli Lumière, un team di registi d’avanguardia nel volgere del secolo in Francia.

d07ef8dcc55b36d37ee7583895c57d8c.png

A collection of short films made by the Lumiere brothers, a team of pioneering filmmakers in turn-of-the-century France.

6a260ec459f21a0ad9b11b356b543b34.png

aac68000db74fd06f6ee7f86f52c6b72.png

a5e2081edd1e3bbd9968d9e33ad15287.png

a3b7ad971aa16aa454e7c7c0445188a7.png

3320fc273d7dd7ce838b2552b2c620e8.png

867b52cebf601efb23dfa965bf1b6352.png

1b54e5e742f8261420054690ccb67b15.png

fe1b2edb0a9b894419a73f3ad22e9fbb.png

Hidden textGeneral

Unique ID                                : 30333992503501497964620748869559983676 (0x16D21D4C9081518E0134B1C84F091E3C)

Complete name                            : Il.Primo.Film.Dei.Fratelli.Lumiere.The.Lumiere.Brothers.First.Films.(1895).H264.Eng.Ac3.2.0.iCV-MIRCrew.mkv

Format                                   : Matroska

Format version                           : Version 2

File size                                : 659 MiB

Duration                                 : 1 h 0 min

Overall bit rate                         : 1 529 kb/s

Encoded date                             : UTC 2016-11-03T21:33:17Z

Writing application                      : HandBrake 0.10.5 2016021100

Writing library                          : Lavf55.12.0 / Lavf55.12.0

Video

ID                                       : 1

Format                                   : AVC

Format/Info                              : Advanced Video Codec

Format profile                           : [email protected]/* */

Format settings, CABAC                   : Yes

Format settings, ReFrames                : 4 frames

Codec ID                                 : V_MPEG4/ISO/AVC

Duration                                 : 1 h 0 min

Bit rate                                 : 1 270 kb/s

Width                                    : 554 pixels

Height                                   : 472 pixels

Display aspect ratio                     : 1.174

Frame rate mode                          : Constant

Frame rate                               : 25.000 FPS

Color space                              : YUV

Chroma subsampling                       : 4:2:0

Bit depth                                : 8 bits

Scan type                                : Progressive

Bits/(Pixel*Frame)                       : 0.194

Stream size                              : 536 MiB (81%)

Writing library                          : x264 core 142 r2479 dd79a61

Encoding settings                        : cabac=1 / ref=1 / deblock=1:0:0 / analyse=0x1:0x111 / me=hex / subme=2 / psy=1 / psy_rd=1.00:0.00 / mixed_ref=0 / me_range=16 / chroma_me=1 / trellis=0 / 8x8dct=0 / cqm=0 / deadzone=21,11 / fast_pskip=1 / chroma_qp_offset=0 / threads=6 / lookahead_threads=2 / sliced_threads=0 / nr=0 / decimate=1 / interlaced=0 / bluray_compat=0 / constrained_intra=0 / bframes=3 / b_pyramid=2 / b_adapt=1 / b_bias=0 / direct=1 / weightb=1 / open_gop=0 / weightp=1 / keyint=250 / keyint_min=25 / scenecut=40 / intra_refresh=0 / rc_lookahead=10 / rc=2pass / mbtree=1 / bitrate=1270 / ratetol=1.0 / qcomp=0.60 / qpmin=0 / qpmax=69 / qpstep=4 / cplxblur=20.0 / qblur=0.5 / vbv_maxrate=20000 / vbv_bufsize=25000 / nal_hrd=none / filler=0 / ip_ratio=1.40 / aq=1:1.00

Default                                  : Yes

Forced                                   : No

Color range                              : Limited

Color primaries                          : BT.601 PAL

Transfer characteristics                 : BT.709

Matrix coefficients                      : BT.601

Audio

ID                                       : 2

Format                                   : AC-3

Format/Info                              : Audio Coding 3

Mode extension                           : CM (complete main)

Format settings, Endianness              : Big

Codec ID                                 : A_AC3

Duration                                 : 1 h 0 min

Bit rate mode                            : Constant

Bit rate                                 : 256 kb/s

Channel(s)                               : 2 channels

Channel positions                        : Front: L R

Sampling rate                            : 48.0 kHz

Frame rate                               : 31.250 FPS (1536 spf)

Bit depth                                : 16 bits

Compression mode                         : Lossy

Delay relative to video                  : -5 ms

Stream size                              : 110 MiB (17%)

Title                                    : Stereo

Language                                 : English

Default                                  : Yes

Forced                                   : No

Menu

00:00:00.000                             : :Chapter 1

00:05:00.180                             : :Chapter 2

00:10:00.220                             : :Chapter 3

00:15:00.260                             : :Chapter 4

00:20:00.300                             : :Chapter 5

00:25:00.340                             : :Chapter 6

00:30:00.380                             : :Chapter 7

00:35:00.420                             : :Chapter 8

00:40:00.460                             : :Chapter 9

00:45:00.500                             : :Chapter 10

00:50:00.540                             : :Chapter 11

00:55:00.580                             : :Chapter 12

01:00:00.620                             : :Chapter 13

c8b145b439c3898c31c1bfe2bd4d01b4.jpg

1eb8cb680.png

Download torrent

NHK.Executive.Non.Decision.A-Bomb.History.Rewritten.720p.HDTV.x264.AAC .mkv torrent

Description

Executive Non Decision: A-Bomb History Rewritten

War Documentary hosted by Tsuyoshi Katsuragi and Toshihiko Hanai, published by NHK in 2016 – English narration

Executive-Non-Decision-A-Bomb-History-Rewritten-Cover.jpg

Information

In 1945, the United States dropped 2 atomic bombs on Japan. Then President Harry Truman explained the decision was made to save thousands of American lives. People have accepted this explanation without question for decades. But recently, materials have surfaced that paint a more nuanced picture of what actually occurred. This program reexamines events in the months leading up to the bombings, and tries to determine how one of the most important events in history was rewritten after the war.

Screenshots

[img]http://docuwiki.net/thumb.php?f=Executive-Non-Decision-A-Bomb-History-Rewritten-Screen0.jpg&w=120[/img]

[img]http://docuwiki.net/thumb.php?f=Executive-Non-Decision-A-Bomb-History-Rewritten-Screen1.jpg&w=120[/img]

[img]http://docuwiki.net/thumb.php?f=Executive-Non-Decision-A-Bomb-History-Rewritten-Screen2.jpg&w=120[/img]

[img]http://docuwiki.net/thumb.php?f=Executive-Non-Decision-A-Bomb-History-Rewritten-Screen3.jpg&w=120[/img]

[img]http://docuwiki.net/thumb.php?f=Executive-Non-Decision-A-Bomb-History-Rewritten-Screen4.jpg&w=120[/img]

[img]http://docuwiki.net/thumb.php?f=Executive-Non-Decision-A-Bomb-History-Rewritten-Screen5.jpg&w=120[/img]

[img]http://docuwiki.net/thumb.php?f=Executive-Non-Decision-A-Bomb-History-Rewritten-Screen6.jpg&w=120[/img]

[img]http://docuwiki.net/thumb.php?f=Executive-Non-Decision-A-Bomb-History-Rewritten-Screen7.jpg&w=120[/img]

[img]http://docuwiki.net/thumb.php?f=Executive-Non-Decision-A-Bomb-History-Rewritten-Screen8.jpg&w=120[/img]

Technical Specs

* Video Codec: x264 CABAC [email protected]/* */

* Video Bitrate: CRF 20 (~1883Kbps)

* Video Resolution: 1280×720

* Video Aspect Ratio: 16:9

* Frames Rate: 25 FPS

* Audio Codec: AAC-LC

* Audio Bitrate: Q=0.55 VBR 48KHz (~112Kbps)

* Audio Channels: 2

* Run-Time: 50 mins

* Number Of Parts: 1

* Part Size: 714 MB

* Source: HDTV

* Encoded by: JungleBoy

Links

1) Further Information

* NHK

2) Related Documentaries

* Hiroshima (BBC)

* The Hiroshima Pictures

* Hiroshima: Why the Bomb Was Dropped

* White Light, Black Rain: The Destruction of Hiroshima and Nagasaki

* Nagasaki: The Horror and Legacy of Fat Man, the World’s 1st Plutonium Bomb

* The Day they Dropped the Bomb

* Race for the World’s First Atomic Bomb

* US Atomic Bomb Tests

* Fall of Japan: In Color

* The Pacific War in Color

3) ed2k Links

[url=”ed2k://|file|NHK.Executive.Non.Decision.A-Bomb.History.Rewritten.720p.HDTV.x264.AAC.MVGroup.org.mkv|748611602|2939c4565ad234c3e92b554735beef59|/”]NHK.Executive.Non.Decision.A-Bomb.History.Rewritten.720p.HDTV.x264.AAC.MVGroup.org.mkv[/url]

Source: http://docuwiki.net/index.php?title=Executive_Non_Decision:_A-Bomb_History_Rewritten

Download torrent

This.Is.Life.With.Lisa.Ling.Series.3.1of8.Locked.Angeles.720p.HDTV.x264.AAC .mp4 torrent

Description

This is Life with Lisa: Series 3

Sociopolitical Documentary hosted by Lisa Ling, published by CNN in 2016 – English narration

This-is-Life-with-Lisa-Series-3-Cover.jpg

Information

This Is Life with Lisa Ling: Series 3

Award-winning journalist and author Lisa Ling takes us on a gritty, breathtaking journey to far corners of America. Here, Ling introduces us to sub-cultures and communities that are unusual, extraordinary and sometimes dangerous; often getting people to share things that they haven’t shared with their closest friends or even family members. Each hour-long episode, in the eight-part series, gives a raw and honest look into unconventional lifestyles that exist in our own backyard.

1) Locked Angeles

Lisa Ling gains unprecedented access to the Los Angeles County Jail to understand what it takes to manage the country’s busiest jail.

2) Women who Fight

Lisa Ling enters the octagon with three female MMA fighters changing the perception of ultimate fighting.

3) The Black and White of Heroin

Lisa visits Chicago to investigate whether a gentler approach to heroin use is being applied equally to the rich and poor, black and white.

4) Century Brothels

Lisa Ling travels to the most famous legal brothel, the Moonlite BunnyRanch in Nevada, to meet women who make a living off lust.

5) Silicon Savants

In Silicon Valley, Lisa Ling visits Make School, a startup that offers students an accelerated two-year education in technology product development. Lisa meets ambitious young people in San Francisco hoping to become the next Mark Zuckerberg.

6) Wired Philly

Lisa Ling embeds with the Philadelphia Police Department to explore how new technology is changing what it means to be a 21st century cop in America.

7) Sins of the Father

Lisa Ling investigates sexual assault survivors who are fighting in court to deny the men that raped them, visitation with their child.

8) Prison Love

Lisa Ling investigates what drives women to seek a romantic companionship with a prison inmate.

Screenshots

[img]http://docuwiki.net/thumb.php?f=This-is-Life-with-Lisa-Series-3-Screen0.jpg&w=120[/img]

[img]http://docuwiki.net/thumb.php?f=This-is-Life-with-Lisa-Series-3-Screen1.jpg&w=120[/img]

[img]http://docuwiki.net/thumb.php?f=This-is-Life-with-Lisa-Series-3-Screen2.jpg&w=120[/img]

[img]http://docuwiki.net/thumb.php?f=This-is-Life-with-Lisa-Series-3-Screen3.jpg&w=120[/img]

[img]http://docuwiki.net/thumb.php?f=This-is-Life-with-Lisa-Series-3-Screen4.jpg&w=120[/img]

[img]http://docuwiki.net/thumb.php?f=This-is-Life-with-Lisa-Series-3-Screen5.jpg&w=120[/img]

[img]http://docuwiki.net/thumb.php?f=This-is-Life-with-Lisa-Series-3-Screen6.jpg&w=120[/img]

[img]http://docuwiki.net/thumb.php?f=This-is-Life-with-Lisa-Series-3-Screen7.jpg&w=120[/img]

[img]http://docuwiki.net/thumb.php?f=This-is-Life-with-Lisa-Series-3-Screen8.jpg&w=120[/img]

[img]http://docuwiki.net/thumb.php?f=This-is-Life-with-Lisa-Series-3-Screen9.jpg&w=120[/img]

[img]http://docuwiki.net/thumb.php?f=This-is-Life-with-Lisa-Series-3-Screen10.jpg&w=120[/img]

[img]http://docuwiki.net/thumb.php?f=This-is-Life-with-Lisa-Series-3-Screen11.jpg&w=120[/img]

Technical Specs

* Video Codec: x264 CABAC [email protected]/* */

* Video: Bitrate: CRF-22 (~2118 Kbps)

* Video Aspect Ratio: 1280 x 720

* Video Resolution: 1.778 (16:9)

* Audio Codec: AAC LC

* Audio: English

* Audio Bitrate: 160 kb/s VBR 48 KHz

* Audio Channels: Stereo 2

* Run-Time: 43 mins

* Framerate: 25 fps

* Number of Parts: 8

* Container Mp4

* Part Size: 838 MB average

* Source: HDTV

* Encoded by: Harry65

Links

1) Further Information

* next-episode.net

2) Related Documentaries

* This is Life with Lisa Ling

* This is Life with Lisa Ling: Series 2

* The Best of Lisa Ling

Download torrent

Ice.Age.Collision.Course.2016.BluRay.720p.DTS.AC3.x264-ETRG torrent

Description

NewBanner20152.md.png

0ca6a12eab01467fc3a5b6bec324784e.png

53b1a870a9515.png

Scrat’s epic pursuit of his elusive acorn catapults him outside of Earth,

where he accidentally sets off a series of cosmic events that transform and

threaten the planet. To save themselves from peril, Manny, Sid, Diego,

and the rest of the herd leave their home and embark on a quest full of thrills

and spills, highs and lows, laughter and adventure while traveling

to exotic new lands and encountering a host of colorful new characters.

53b1a87122294.png

Stephanie Beatriz : Gertie (voice)

Robert Cardone : Freaky Bobby (voice)

Neil deGrasse Tyson : Neil deBuck Weasel (voice)

Adam Devine : Julian (voice)

Jesse Tyler Ferguson : Shangri Llama (voice)

Max Greenfield : Roger (voice)

53b1a87034fbd.jpg

Video:-

Format : Matroska (Mkv)

Encoded/Profile/Level : 2 pass/High/Level 4.1

Type/Codec/Writing Library : MPEG-4 AVC/H264/x264

Duration : 1 hr 34 mn 33 sec

Bitrate : 4060 kbps

Resolution=Width/Height : 1280×534 pixels

Bits/(Pixel*Frame) : 0.248

Aspect Ratio/Frame Rate : 2.40:1/23.976 fps

Audio:-

TRACK-1 (DEFAULT)

Format : DTS

Bitrate : 755 kbps

Channels : 6 channels

Channel Positions : Front: L C R, Side: L R, LFE

Sample Rate : 48.0 KHz

Bit Depth : 24 bits

Language : English

TRACK-2 (SECONDARY)

Format : AC3 (Dolby Digital)

Bitrate : 640 kbps

Channels : 6 channels

Channel Positions : Front: L C R, Side: L R, LFE

Sample Rate : 48.0 KHz

Bit Depth : 24 bits

Language : English

Release info:-

Encoded/Released By : MgB

Title/Year : Ice Age: Collision Course/2016

File Size : 3.60 GB

Genre : Animation, Adventure, Comedy

Source : Blu-ray EUR 1080p AVC DTS 5.1-HDCLUB = 39.45 GB…. Thanks

Chapters : Yes

Sample : 41.1 MB/60 Secs

Subtitles External(SubRip) : Arabic,English,Finnish.

Subtitles External(SubRip) : Indonsian,Spanish.

53b1a86f7b04a.png

e1107b455c62093236ed4da5f6e6a400.th.png 64bd366c86c4a43f4171d01591ae86cf.th.png f037163e3f392517d9c2a3bc1c4e093a.th.png 42001ca681f9be5efa88b2d5616438ac.th.png c3814947d306b463897173fe291b1700.th.png 2b9b047de0b9e84e00f79ea1e59bcb47.th.png 68643b624bd67f053483c2a86b3e8a5e.th.png c62d5f225011cbc0ba36dcc6aee7039a.th.png 7543812ac50687c37a8ad1f78de9f7f6.th.png 2fab02bc0e16544ab31f42b9ce308927.th.png 17aee6714ac873495e0f108f17613e0c.th.png 407003654279aef3b84606fe2b26de33.th.png

Make sure it is Genuine ETRG release @ ExtraTorrent.cc or from our Trusted Accounts elswhere

Greetz To: |SaM|Ozi|FraMeSToR|KRaLiMaRKo|3Li|tomcat12|ETRG| and |Extratorrent|

Click here to find out the upcoming releases from MgB !!!

Follow Us on fbetrg12.png

etrg.png

Help us by donating with Bitcoin : 1MbtePmWNM13SEkQgmxF6RSvfaXugF7rpz

jbxb.png

Trailer : https://www.youtube.com/watch?v=Ohq6NmKMja8

IMDB : http://www.imdb.com/title/tt3416828/

Download torrent

100 Days of Love (2016) Telugu 720p WEB-DL x264 AAC – RDLinks torrent

Description

dJDYe4I.jpg

Info :

Code:
Format : MPEG-4
File size : 1.15 GiB
Run Time : 2h 34mn
Overall bit rate : 1 066 Kbps
Video Resolution : 1280*720
Video Frame rate : 24.000 fps
Audio Format : AAC
Audio Channel(s) : 2 channels
Language : Telugu

Screenshots :

11ba63.md.png

261f2c.md.png

379595.md.png

4c8f06.md.png

5442a3.md.png

646a6c.md.png

71fe30.md.png

8bccbb.md.png

988994.md.png

10d6092.md.png

*************RDLinks Exclusive Release**********

Eozd4DH.jpg

Download torrent

100 Days of Love (2016) Telugu 1080p WEB-DL x264 AAC – RDLinks torrent

Description

MsWIgaz.jpg

Info :

Code:
Format : MPEG-4
File size : 2.06 GiB
Run Time : 2h 34mn
Overall bit rate : 1 911 Kbps
Video Resolution : 1920*1080
Video Frame rate : 24.000 fps
Audio Format : AAC
Audio Channel(s) : 2 channels
Language : Telugu

Screenshots :

18a258.md.png

20f136.md.png

34b6a3.md.png

4bcf63.md.png

555dde.md.png

62ca0d.md.png

762ad7.md.png

8a30b6.md.png

9983c6.md.png

10ac3ad.md.png

1130940.md.png

125a17d.md.png

*************RDLinks Exclusive Release**********

Eozd4DH.jpg

Download torrent

Scrooged – 1998 HEVC D3FiL3R iso.[PRiME] torrent

Description

Scrooged – 1998 HEVC D3FiL3R iso.[PRiME]

Info.png

Complete name : Scrooged – 1998 BluRay 1080p DD5.1 HEVC-D3FiL3R[PRiME].mkv

Format : Matroska

Format version : Version 2

File size : 3.15 GiB

Duration : 1 h 40 min

Overall bit rate : 4 466 kb/s

Movie name : Scrooged – 1998 BluRay 1080p DD5.1 HEVC-D3FiL3R

Encoded date : UTC 2016-11-23 15:56:27

Writing application : DVDFab 9.3.2.1

Writing library : libebml v0.7.8 + libmatroska v0.8.1

Video

ID : 1

Format : HEVC

Format/Info : High Efficiency Video Coding

Format profile : [email protected]/* */@High

Codec ID : V_MPEGH/ISO/HEVC

Duration : 1 h 40 min

Bit rate : 3 929 kb/s

Width : 1 920 pixels

Height : 1 080 pixels

Display aspect ratio : 16:9

Frame rate mode : Constant

Frame rate : 23.976 (24000/1001) FPS

Color space : YUV

Chroma subsampling : 4:2:0

Bit depth : 8 bits

Bits/(Pixel*Frame) : 0.079

Stream size : 2.77 GiB (88%)

Default : Yes

Forced : No

Audio

ID : 2

Format : AC-3

Format/Info : Audio Coding 3

Mode extension : CM (complete main)

Format settings, Endianness : Big

Codec ID : A_AC3

Duration : 1 h 40 min

Bit rate mode : Constant

Bit rate : 448 kb/s

Channel(s) : 6 channels

Channel positions : Front: L C R, Side: L R, LFE

Sampling rate : 48.0 kHz

Frame rate : 31.250 FPS (1536 spf)

Compression mode : Lossy

Stream size : 323 MiB (10%)

Language : English

Default : Yes

Forced : No

Text

ID : 3

Format : VobSub

Codec ID : S_VOBSUB

Codec ID/Info : Picture based subtitle format used on DVDs

Language : English

Default : No

Forced : No

Menu

00:00:00.000 : en:(01)00:00:00:000

00:09:10.550 : en:(02)00:09:10:550

00:16:14.974 : en:(03)00:16:14:974

00:24:20.459 : en:(04)00:24:20:459

00:35:55.153 : en:(05)00:35:55:153

00:42:20.538 : en:(06)00:42:20:538

00:51:38.095 : en:(07)00:51:38:095

00:58:21.498 : en:(08)00:58:21:498

01:05:06.903 : en:(09)01:05:06:903

01:17:17.633 : en:(10)01:17:17:633

01:24:00.035 : en:(11)01:24:00:035

01:35:09.704 : en:(12)01:35:09:704

Screens.png

Click Image To View Full Size

EYNM5.th.jpg

Click To View Screenshot

Click To View Screenshot

Click To View Screenshot

Download torrent

Ishq Click (2016) – 720p – WebHD-Rip – Hindi – x264 – AAC – 2.0 – ESub – Mafiaking – M2Tv torrent

Description

CLICK HERE TO CHECK MY ALL OTHER UPLOADS

Ishq Click (2016) – 720p – WebHD-Rip – Hindi – x264 – AAC – 2.0 – ESub – Mafiaking – M2Tv

-=Extreme Seeded=-

M2tv.png

poster.jpg

Infoo.png

Quote:

26jymSt.jpg

Ratings: 5.0/10

Genere: Drama, Romance

General

Unique ID : 203468570182794567847206885725709562779 (0x99129F0755B4B678BB796EFC6040739B)

Complete name : Ishq Click (2016) – 720p – WebHD-Rip – Hindi – x264 – AAC – 2.0 – ESub – Mafiaking – M2Tv.mkv

Format : Matroska

Format version : Version 4 / Version 2

File size : 1.03 GiB

Duration : 2 h 15 min

Overall bit rate : 1 086 kb/s

Movie name : Ishq Click (2016) – 720p – WebHD-Rip – Hindi – x264 – AAC – 2.0 – ESub – Mafiaking – M2Tv

Encoded date : UTC 2016-11-29 15:39:52

Writing application : mkvmerge v7.0.0 (‘Where We Going’) 32bit built on Jun 9 2014 15:08:34

Writing library : libebml v1.3.0 + libmatroska v1.4.1

Video

ID : 1

Format : AVC

Format/Info : Advanced Video Codec

Format profile : [email protected]/* */

Format settings, CABAC : Yes

Format settings, ReFrames : 3 frames

Codec ID : V_MPEG4/ISO/AVC

Duration : 2 h 15 min

Bit rate : 925 kb/s

Width : 1 280 pixels

Height : 544 pixels

Display aspect ratio : 2.35:1

Frame rate mode : Constant

Frame rate : 24.000 FPS

Color space : YUV

Chroma subsampling : 4:2:0

Bit depth : 8 bits

Scan type : Progressive

Bits/(Pixel*Frame) : 0.055

Stream size : 897 MiB (85%)

Title : Mafiaking

Language : Hindi

Default : Yes

Forced : No

Audio

ID : 2

Format : AAC

Format/Info : Advanced Audio Codec

Format profile : LC

Codec ID : A_AAC

Duration : 2 h 15 min

Bit rate : 160 kb/s

Channel(s) : 2 channels

Channel positions : Front: L R

Sampling rate : 44.1 kHz

Frame rate : 43.066 FPS (1024 spf)

Compression mode : Lossy

Stream size : 155 MiB (15%)

Title : Mafiaking

Language : Hindi

Default : Yes

Forced : No

SAMPLE WITH IN TORRENT

screenshots-icon.png

**To View Image In Full Size Click on Thumbnails**

1.md.png

2.md.png

3.md.png

4.md.png

5.md.png

6.md.png

7.md.png

8.md.png

9.md.png

10.md.png

11.md.png

12.md.png

Thanks DDR For Source.

Respects To ::- SaM,oziman, And All The Staff’s Of Extratorrent!!!

Download torrent

Suicide.Squad.2016.1080p.Bluray.X264-EZ[EtHD] torrent

Description

EtHD – ExtraTorrent High-Definition Movies

ae6d10823d00dd85e8de3f3339d409ef.jpg

Suicide.Squad.2016.1080p.Bluray.X264-EZ

http://www.imdb.com/title/tt1386697/

[Video Bitrate]:………….: 11.5mb/s

[Duration]:………….: 2 h 2 min

[Video Codec]:………….: AVC

[Resolution]:………….: 1920×800 px

[Aspect Ratio]:………….: 2.40:1

[Audio Codec]:………….: AC-3

[Audio Bitrate]:………….: 640kb/s

[Audio Channels]:………….: 5.1ch

[Audio Language]:………….: English

Genre …………………..: Action | Adventure | Fantasy | Sci-Fi

#EtHD -> To avoid fakes, ALWAYS check that the torrent was added by EtHD

http://extratorrent.cc/

Help us by donating with Bitcoin: 1MbtePmWNM13SEkQgmxF6RSvfaXugF7rpz

Screens…

33f177cd0114214d5048efe6825c5b40.th.jpg

6c5ddc9a956bd11c197f0f51b0ea3cc0.th.jpg

8262379b72c411297e4585be898eb4e0.th.jpg

b465ac7ab7f0632ef42779f514dc0134.th.jpg

795c343eef0ee67b433ec26cef6efb70.th.jpg

Download torrent

100 Days of Love (2016) Telugu 1CD HDRip x264 AC3 – RDLinks torrent

Description

SYx2DRF.jpg

Info :

Code:
Format : Matroska
File size : 706 MiB
Run Time : 2h 34mn
Overall bit rate : 638 Kbps
Video Resolution : 640*272
Video Frame rate : 24.000 fps
Audio Format : AC3
Audio Channel(s) : 2 channels
Language : Telugu

Screenshots :

eEFBxFx.png

2Q0dy7l.png

WriaJcF.png

gayB6gO.png

42jjtUx.png

mSn9TuD.png

XRppPlN.png

PNwPZ5V.png

*************RDLinks Exclusive Release**********

Sample :

Code:
http://filesflash.net/i2pwt7u2

Eozd4DH.jpg

Download torrent