Setup Let’s Encrypt With Apache on Ubuntu 14.04

Let’s Encrypt is a new certificate authority that allows you to issue SSL certificates for free. You can now use SSL without any extra costs. When using an SSL certificate, all traffic between the client and the server is encrypted — which drastically improves your website security.

This guide covers the installation of a Let’s Encrypt certificate and automatic renewal on Ubuntu.

By the end of this tutorial you will have an Apache server setup on Ubuntu 14.04 with Let’s Encrypt.

Step 1: Prerequisites

You will need a Vultr SSD cloud server with Ubuntu 14.04 installed. You will also need a LAMP stack (Apache, PHP, etc.). If you do not yet have a LAMP stack installed on your Vultr server, please refer to the following knowledge base article: How to Install Apache, MySQL, and PHP on Ubuntu.

Once you have a working LAMP Stack on your Ubuntu Server, you can proceed with with installing Let’s Encrypt.

In order to generate and install your SSL certificate, you will need Git to clone the Let’s Encrypt repository:

$[ubuntu] apt-get install git
$[ubuntu] git clone https://github.com/letsencrypt/letsencrypt /opt/letsencrypt

This will download the Let’s Encrypt installer to /opt/letsencrypt.

Step 2: Generating a Let’s Encrypt SSL certificate

Let’s Encrypt verifies your domain by setting up a temporary web server process on your Ubuntu server. This process will run independently of your Apache server. After the SSL certificate has been generated, the temporary web server process will be automatically terminated by the Let’s Encrypt installer. The installer will then install your newly created certificate on the Apache web server.

$[ubuntu] ./letsencrypt-auto --apache -d yourubuntuserver.example

If you want Let’s Encrypt to generate an SSL certificate for even more domains, simply add those domains to the command.

$[ubuntu] ./letsencrypt-auto --apache -d yourubuntuserver.example -d mysslcertificate.example

This feature is very handy for securing your www subdomain. Right now, users who visit your website with the www prefix will get an SSL error. This kind of error will hurt your reputation. In order to resolve it, use a command like this:

$[ubuntu] ./letsencrypt-auto --apache -d yourubuntuserver.example -d www.yourubuntuserver.example

The Let’s Encrypt client will now create a Let’s Encrypt SSL certificate not only for yourubuntuserver.example but also for www.yourubuntuserver.example!

Step 3: Forcing SSL

You can now force your Apache server to route all HTTP requests to HTTPS. The best way to do this by creating an .htaccess file in your “www root” folder and appending the following rewrite code:

RewriteEngine On 
RewriteCond % 80 
RewriteRule ^(.*)$ https://letsencrypt.example/$1 [R,L]

All incoming traffic on the HTTP port 80 will now automatically be redirected to port 443, which utilizes your LE SSL certificate.

Step 4: Automatically renewing Let’s Encrypt certificates

As Let’s Encrypt is a free certificate authority, SSL’s can’t be provided for one year or longer. All Let’s Encrypt certificates are valid for 90 days. However, if you want to automatically renew them, this can be automated using a cron job. You can choose to renew certificates when they’re about to expire.

Open your crontab:

$[ubuntu] crontab -e

Append the following line to the crontab:

15 5 * * 5 /opt/letsencrypt/letsencrypt-auto renew >> /var/log/le-renew.log

This cron job runs the /opt/letsencrypt/letsencrypt-auto renew command every Friday at 5:15 A.M. We have chosen to renew the certificates at this time because this is typically a period with little to no traffic on most sites. Therefore, visitors will not notice any delays because the server is under heavy load during the renewal and checking of all Let’s Encrypt certificates.

Your Ubuntu Server is now running a fully functional LAMP Stack and your website is using an SSL Certificate form Let’s Encrypt with automatic renewal setup.

It is possible to use more than one Let’s Encrypt SSL certificate on your server; simply follow step #2 again for each domain.

This concludes our tutorial, thank you for reading.

Trinity Blood Season S01 WEB 1080p x265 10bit AAC 2.0 torrent

Description

General : Trinity Blood – S01E01 – Flight Night – [WEB-DL][1080p][x265 10-bit][AAC 2.0]

Format : Matroska

Size : 176 MiB

Length : 24 min 1 s

Overall bit rate : 1 024 kb/s

Video #0 : HEVC 10 bits

Profile : Main [email protected]/* */@Main

Aspect : 1916 x 1078 (16:9)

Settings : cpuid=1105919 / frame-threads=3 / numa-pools=8 / wpp / no-pmode / no-pme / no-psnr / no-ssim / log-level=2 / input-csp=1 / input-res=1916×1078 / interlace=0 / total-frames=0 / level-idc=0 / high-tier=1 / uhd-bd=0 / ref=3 / no-allow-non-conformance / no-repeat-headers / annexb / no-aud / no-hrd / info / hash=0 / no-temporal-layers / open-gop / min-keyint=24 / keyint=240 / bframes=4 / b-adapt=2 / b-pyramid / bframe-bias=0 / rc-lookahead=20 / lookahead-slices=6 / scenecut=40 / no-intra-refresh / ctu=64 / min-cu-size=8 / no-rect / no-amp / max-tu-size=32 / tu-inter-depth=1 / tu-intra-depth=1 / limit-tu=0 / rdoq-level=0 / dynamic-rd=0.00 / no-ssim-rd / signhide / no-tskip / nr-intra=0 / nr-inter=0 / no-constrained-intra / no-strong-intra-smoothing / max-merge=2 / limit-refs=3 / no-limit-modes / me=1 / subme=2 / merange=57 / temporal-mvp / weightp / no-weightb / no-analyze-src-pics / deblock=0:0 / sao / no-sao-non-deblock / rd=3 / no-early-skip / rskip / no-fast-intra / no-tskip-fast / no-cu-lossless / no-b-intra / rdpenalty=0 / psy-rd=2.00 / psy-rdoq=0.00 / no-rd-refine / analysis-mode=0 / no-lossless / cbqpoffs=0 / crqpoffs=0 / rc=crf / crf=24.0 / qcomp=0.60 / qpstep=4 / stats-write=0 / stats-read=0 / ipratio=1.40 / pbratio=1.30 / aq-mode=1 / aq-strength=1.00 / cutree / zone-count=0 / no-strict-cbr / qg-size=32 / no-rc-grain / qpmax=69 / qpmin=0 / sar=1 / overscan=0 / videoformat=5 / range=0 / colorprim=1 / transfer=1 / colormatrix=1 / chromaloc=0 / display-window=0 / max-cll=0,0 / min-luma=0 / max-luma=1023 / log2-max-poc-lsb=8 / vui-timing-info / vui-hrd-info / slices=1 / opt-qp-pps / opt-ref-list-length-pps / no-multi-pass-opt-rps / scenecut-bias=0.05 / no-opt-cu-delta-qp / no-aq-motion / no-hdr / no-hdr-opt / no-dhdr10-opt / refine-level=5 / no-limit-sao

Audio #0 : Stereo

Info : English, 2 channels / 1 channel / 1 channel, AAC (HE-AACv2 / HE-AAC / LC), 48.0 kHz / 48.0 kHz / 24.0 kHz

Text #0 :

Language : English, ASS

Text #1 :

Language : English, UTF-8

Text #2 :

Language : English, S_TEXT/WEBVTT

Download torrent

Sky Wizards Academy Season S01 WEB 1080p x265 10bit AAC 2.0 torrent

Description

General : Sky Wizards Academy – S01E01 – Fireteam E601 – [WEB-DL][1080p][x265 10-bit][AAC 2.0]

Format : Matroska

Size : 193 MiB

Length : 24 min 30 s

Overall bit rate : 1 102 kb/s

Video #0 : HEVC 10 bits

Profile : Main [email protected]/* */@Main

Aspect : 1920 x 1080 (16:9)

Settings : cpuid=1105919 / frame-threads=3 / numa-pools=8 / wpp / no-pmode / no-pme / no-psnr / no-ssim / log-level=2 / input-csp=1 / input-res=1920×1080 / interlace=0 / total-frames=0 / level-idc=0 / high-tier=1 / uhd-bd=0 / ref=3 / no-allow-non-conformance / no-repeat-headers / annexb / no-aud / no-hrd / info / hash=0 / no-temporal-layers / open-gop / min-keyint=24 / keyint=240 / bframes=4 / b-adapt=2 / b-pyramid / bframe-bias=0 / rc-lookahead=20 / lookahead-slices=6 / scenecut=40 / no-intra-refresh / ctu=64 / min-cu-size=8 / no-rect / no-amp / max-tu-size=32 / tu-inter-depth=1 / tu-intra-depth=1 / limit-tu=0 / rdoq-level=0 / dynamic-rd=0.00 / no-ssim-rd / signhide / no-tskip / nr-intra=0 / nr-inter=0 / no-constrained-intra / no-strong-intra-smoothing / max-merge=2 / limit-refs=3 / no-limit-modes / me=1 / subme=2 / merange=57 / temporal-mvp / weightp / no-weightb / no-analyze-src-pics / deblock=0:0 / sao / no-sao-non-deblock / rd=3 / no-early-skip / rskip / no-fast-intra / no-tskip-fast / no-cu-lossless / no-b-intra / rdpenalty=0 / psy-rd=2.00 / psy-rdoq=0.00 / no-rd-refine / analysis-mode=0 / no-lossless / cbqpoffs=0 / crqpoffs=0 / rc=crf / crf=24.0 / qcomp=0.60 / qpstep=4 / stats-write=0 / stats-read=0 / ipratio=1.40 / pbratio=1.30 / aq-mode=1 / aq-strength=1.00 / cutree / zone-count=0 / no-strict-cbr / qg-size=32 / no-rc-grain / qpmax=69 / qpmin=0 / sar=1 / overscan=0 / videoformat=5 / range=0 / colorprim=1 / transfer=1 / colormatrix=1 / chromaloc=0 / display-window=0 / max-cll=0,0 / min-luma=0 / max-luma=1023 / log2-max-poc-lsb=8 / vui-timing-info / vui-hrd-info / slices=1 / opt-qp-pps / opt-ref-list-length-pps / no-multi-pass-opt-rps / scenecut-bias=0.05 / no-opt-cu-delta-qp / no-aq-motion / no-hdr / no-hdr-opt / no-dhdr10-opt / refine-level=5 / no-limit-sao

Audio #0 : Stereo

Info : English, 2 channels / 1 channel / 1 channel, AAC (HE-AACv2 / HE-AAC / LC), 48.0 kHz / 48.0 kHz / 24.0 kHz

Text #0 :

Language : English, ASS

Text #1 :

Language : English, UTF-8

Text #2 :

Language : English, S_TEXT/WEBVTT

Download torrent

[AnimeRG] Shonen Ashibe GO GO Goma-chan – 37 [1280×720] [English Sub] [Web-DL] [Pseudo-ReleaseBitch].mkv torrent

Description

If you Find any corruption or errors in encoding, Please mention in comments or site chat.

..::Video Specs::..

Source : CrunchyRoll

Format/Info : Advanced Video Codec

Resolution : 1280×720

Frame Rate : 23.976 fps

..::Audio Specs::..

Format/Info : Advanced Audio Codec

Channels : 2 channels

Sample Rate : 48KHz

Language : Japanese

..::Subtitles::..

Language : English

Type : Soft Coded

Format : –

Download torrent

One Piece Movie Z & Strong World [Dual Audio][1080p BluRay][MeGaT… torrent

Description

One Piece Movie: Z
The Straw Hat Pirates enter the rough seas of the New World in search of the hidden treasures of the Pirate King, Gol D. Roger-One Piece. On their voyage, the pirates come across a terrifying, powerful man, former Marine Admiral Z.

Z is accused of having stolen the “Dyna Stones”, weapons believed to have the power to shake up the New World. The Marine Headquarters believes Z is about to use it to end the pirate era, and with it, the lives of many innocent people. In fear of such a phenomenal event, marines start to take action against the former admiral.

Even if it means stumbling upon marines and the navy, the Straw Hat Pirates decided to chase after Z and stop him from causing havoc. As they continue to embark on their ventures, the pirates bump into new and familiar acquaintances.

MediaInfo
——————————————————– 
:::General:::
Format : Matroska 
Size : 1.74GB
——————————————————– 
:::Video:::
Format : AVC 
Format profile : High @L5.1
Width : 1920 pixels 
Height : 1080 pixels 
Display aspect ratio : 16:9
Frame rate : 23.976 fps 
Bit depth : 8 bits 
——————————————————– 
:::Audio 1:::
Format : Vorbis
Channel(s) : 2 channels 
Language : Japanese
——————————————————–
:::Audio 2:::
Format : Vorbis
Channel(s) : 2 channels 
Language : English
——————————————————–
:::Subtitle:::
Format : Ass
Language : English SoftSub
——————————————————–

=================================================================================================

One Piece Movie: Strong World
Upon hearing news that islands in East Blue are being destroyed, Monkey D. Luffy and his crew go to investigate. On their way, however, an outlandish pirate ship appears out of the sky, helmed by the infamous pirate Shiki “the Golden Lion”—a man who ate the Float-Float Fruit and the first ever prisoner to escape from Impel Down. In his quest to defeat the World Government, Shiki kidnaps Nami to be his own navigator and sends the rest of the Straw Hat Pirates to his floating islands as hostages, leaving her in a dilemma. Separated in a land under Shiki’s absolute control, Luffy and his crew must survive the mystifying terrain in order to bring back their navigator and friend.

MediaInfo
——————————————————– 
:::General:::
Format : Matroska 
Size : 2.18GB
——————————————————– 
:::Video:::
Format : AVC 
Format profile : High @L4.1
Width : 1920 pixels 
Height : 1080 pixels 
Display aspect ratio : 16:9
Frame rate : 23.976 fps 
Bit depth : 8 bits 
——————————————————– 
:::Audio 1:::
Format : Vorbis
Channel(s) : 2 channels 
Language : Japanese
——————————————————–
:::Audio 2:::
Format : Vorbis
Channel(s) : 2 channels 
Language : English
——————————————————–
:::Subtitle:::
Format : Ass
Language : English SoftSub
——————————————————–

Download torrent

[HcLs]Hitsugi no Chaika: Avenging Battle + OVA (2014) [KamiKoder] [Dual Audio] [BDRip] [720p] [x264] torrent

Description

another_without_icon_corrected_ratio.png

[HcLs][HcLs]Hitsugi no Chaika: Avenging Battle + OVA (2014) [KamiKoder] [Dual Audio] [BDRip] [720p] [x264]

tnMzvdZe.jpg

Summary (click to toggle)The search for the remains of Emperor Gaz continues. Chaika still in search of knowing who she really is and what her purpose is. Similarly, the Red Chaika continues the search for the rest of Emperor Gaz’s remains. The Gillette corporation continues the mission to catch every last Chaika. In their adventure they give a revealing account kept secret by the Emperor, which Chaika, Fredrica, Toru, and Akari decide to uncover.

Download torrent

Attack.On.Titan.S02E03.D ed.720p.HDTV.x265-GunGravE torrent

Description

Format/Info : High Efficiency Video Coding

Format profile : [email protected]/* */@Main

Codec ID : V_MPEGH/ISO/HEVC

Duration : 22 min 16 s

Bit rate : 1 037 kb/s

Width : 1 280 pixels

Height : 720 pixels

Display aspect ratio : 16:9

Frame rate mode : Variable

Frame rate : 23.976 FPS

Original frame rate : 25.000 FPS

Color space : YUV

Chroma subsampling : 4:2:0

Bit depth : 8 bits

Format/Info : Advanced Audio Codec

Format profile : LC

Codec ID : A_AAC

Duration : 22 min 16 s

Bit rate : 81.1 kb/s

Channel(s) : 2 channels

Channel positions : Front: L R

Sampling rate : 48.0 kHz

4bb9f49a74f3971df5a868e8c9222b07.th.png cd3acf42dc4293fe561f615c3010bb23.th.png 48dc65eda1f8b949ef326f3a1625d5a6.th.png

Download torrent

[AnimeRG] Yowamushi Pedal New Generation – 18 [1280×720] [English Sub] [Web-DL] [Pseudo-ReleaseBitch].mkv torrent

Description

If you Find any corruption or errors in encoding, Please mention in comments or site chat.

..::Video Specs::..

Source : CrunchyRoll

Format/Info : Advanced Video Codec

Resolution : 1280×720

Frame Rate : 23.976 fps

..::Audio Specs::..

Format/Info : Advanced Audio Codec

Channels : 2 channels

Sample Rate : 48KHz

Language : Japanese

..::Subtitles::..

Language : English

Type : Soft Coded

Format : –

Download torrent

Bahubali 2 (2017) Telugu – DVDSCR – 576p – x264 – AAC – [DDR] torrent

Description

Bahubali 2 – The Conclusion (2017)
**DVDSCR / 576p / x264 / AAC2.0 **

* Telugu *

[ SCREENS ]


Specs:

Format : Matroska
File size : 2.20 GiB
Duration : 2 h 42 min
Overall bit rate : 1 929 kb/s

Video:
Format : AVC
Format profile : [email protected]/* */
Format settings, ReFrames : 8 frames
Duration : 2 h 42 min
Bit rate : 1 800 kb/s
Width : 1 042 pixels
Height : 448 pixels
Display aspect ratio : 2.35:1
Frame rate : 24.000 FPS
Matrix coefficients : BT.709

Audio:
Format : AAC
Bit rate : 128 kb/s
Channel(s) : 2 channels
Channel positions : Front: L R
Sampling rate : 44.1 kHz
Language : Telugu

sample included in torrent

Download torrent

Love.at.First.Sight.2017.1080p.BluRay.x264-FLAME[PRiME] torrent

Description

Love.at.First.Sight.2017.1080p.BluRay.x264-FLAME[PRiME]

ImDb: http://www.imdb.com/title/tt6536772

Complete name : flame-love.at.first.sight.2017.1080p.bluray.x264[PRiME].mkv
Format : Matroska
Format version : Version 4 / Version 2
File size : 327 MiB
Duration : 4 min 18 s
Overall bit rate : 10.6 Mb/s
Encoded date : UTC 2017-05-10 21:03:50
Writing application : mkvmerge v11.0.0 (‘Alive’) 64bit
Writing library : libebml v1.3.4 + libmatroska v1.4.5

Video
ID : 1
Format : AVC
Format/Info : Advanced Video Codec
Format profile : [email protected]/* */
Format settings, CABAC : Yes
Format settings, ReFrames : 4 frames
Codec ID : V_MPEG4/ISO/AVC
Duration : 4 min 18 s
Bit rate : 9 999 kb/s
Width : 1 920 pixels
Height : 1 040 pixels
Display aspect ratio : 1.85:1
Frame rate mode : Constant
Frame rate : 23.976 (24000/1001) FPS
Color space : YUV
Chroma subsampling : 4:2:0
Bit depth : 8 bits
Scan type : Progressive
Bits/(Pixel*Frame) : 0.209
Stream size : 307 MiB (94%)
Writing library : x264 core 148 r2762 90a61ec
Encoding settings : cabac=1 / ref=4 / deblock=1:-2:-2 / analyse=0x3:0x133 / me=umh / subme=9 / psy=1 / psy_rd=1.00:0.00 / mixed_ref=1 / me_range=16 / chroma_me=1 / trellis=2 / 8x8dct=1 / cqm=0 / deadzone=21,11 / fast_pskip=0 / chroma_qp_offset=-2 / threads=12 / lookahead_threads=1 / sliced_threads=0 / nr=0 / decimate=1 / interlaced=0 / bluray_compat=0 / constrained_intra=0 / bframes=3 / b_pyramid=2 / b_adapt=2 / b_bias=0 / direct=3 / weightb=1 / open_gop=0 / weightp=2 / keyint=250 / keyint_min=23 / scenecut=40 / intra_refresh=0 / rc_lookahead=60 / rc=2pass / mbtree=1 / bitrate=9999 / ratetol=1.0 / qcomp=0.60 / qpmin=10 / qpmax=69 / qpstep=4 / cplxblur=20.0 / qblur=0.5 / ip_ratio=1.40 / aq=1:0.70
Language : English
Default : Yes
Forced : No

Audio
ID : 2
Format : AC-3
Format/Info : Audio Coding 3
Mode extension : CM (complete main)
Format settings, Endianness : Big
Codec ID : A_AC3
Duration : 4 min 18 s
Bit rate mode : Constant
Bit rate : 640 kb/s
Channel(s) : 6 channels
Channel positions : Front: L C R, Side: L R, LFE
Sampling rate : 48.0 kHz
Frame rate : 31.250 FPS (1536 spf)
Compression mode : Lossy
Stream size : 19.7 MiB (6%)
Title : English AC3 640 kbps
Language : English
Default : Yes
Forced : No

Text #1
ID : 3
Format : UTF-8
Codec ID : S_TEXT/UTF8
Codec ID/Info : UTF-8 Plain Text
Duration : 3 min 25 s
Bit rate : 44 b/s
Count of elements : 40
Stream size : 1.11 KiB (0%)
Title : SDH
Language : English
Default : No
Forced : No

Text #2
ID : 4
Format : UTF-8
Codec ID : S_TEXT/UTF8
Codec ID/Info : UTF-8 Plain Text
Duration : 4 min 10 s
Bit rate : 27 b/s
Count of elements : 35
Stream size : 867 Bytes (0%)
Language : Polish
Default : No
Forced : No

Click Image To View Full Size


Click To View Screenshot
Click To View Screenshot
Click To View Screenshot

Download torrent

Love.at.First.Sight.2017.720p.BluRay.x264-FLAME[PRiME] torrent

Description

Love.at.First.Sight.2017.720p.BluRay.x264-FLAME[PRiME]

ImDb: http://www.imdb.com/title/tt6536772

Complete name : flame-love.at.first.sight.2017.720p.bluray.x264[PRiME].mkv
Format : Matroska
Format version : Version 4 / Version 2
File size : 173 MiB
Duration : 4 min 18 s
Overall bit rate : 5 626 kb/s
Encoded date : UTC 2017-05-10 21:02:44
Writing application : mkvmerge v11.0.0 (‘Alive’) 64bit
Writing library : libebml v1.3.4 + libmatroska v1.4.5

Video
ID : 1
Format : AVC
Format/Info : Advanced Video Codec
Format profile : [email protected]/* */
Format settings, CABAC : Yes
Format settings, ReFrames : 8 frames
Codec ID : V_MPEG4/ISO/AVC
Duration : 4 min 18 s
Bit rate : 5 000 kb/s
Width : 1 280 pixels
Height : 688 pixels
Display aspect ratio : 1.85:1
Frame rate mode : Constant
Frame rate : 23.976 (24000/1001) FPS
Color space : YUV
Chroma subsampling : 4:2:0
Bit depth : 8 bits
Scan type : Progressive
Bits/(Pixel*Frame) : 0.237
Stream size : 154 MiB (89%)
Writing library : x264 core 148 r2762 90a61ec
Encoding settings : cabac=1 / ref=8 / deblock=1:-2:-2 / analyse=0x3:0x133 / me=umh / subme=9 / psy=1 / psy_rd=1.00:0.00 / mixed_ref=1 / me_range=16 / chroma_me=1 / trellis=2 / 8x8dct=1 / cqm=0 / deadzone=21,11 / fast_pskip=0 / chroma_qp_offset=-2 / threads=12 / lookahead_threads=1 / sliced_threads=0 / nr=0 / decimate=1 / interlaced=0 / bluray_compat=0 / constrained_intra=0 / bframes=3 / b_pyramid=2 / b_adapt=2 / b_bias=0 / direct=3 / weightb=1 / open_gop=0 / weightp=2 / keyint=250 / keyint_min=23 / scenecut=40 / intra_refresh=0 / rc_lookahead=60 / rc=2pass / mbtree=1 / bitrate=5000 / ratetol=1.0 / qcomp=0.60 / qpmin=10 / qpmax=69 / qpstep=4 / cplxblur=20.0 / qblur=0.5 / ip_ratio=1.40 / aq=1:0.70
Language : English
Default : Yes
Forced : No

Audio
ID : 2
Format : AC-3
Format/Info : Audio Coding 3
Mode extension : CM (complete main)
Format settings, Endianness : Big
Codec ID : A_AC3
Duration : 4 min 18 s
Bit rate mode : Constant
Bit rate : 640 kb/s
Channel(s) : 6 channels
Channel positions : Front: L C R, Side: L R, LFE
Sampling rate : 48.0 kHz
Frame rate : 31.250 FPS (1536 spf)
Compression mode : Lossy
Stream size : 19.7 MiB (11%)
Title : English AC3 640 kbps
Language : English
Default : Yes
Forced : No

Text #1
ID : 3
Format : UTF-8
Codec ID : S_TEXT/UTF8
Codec ID/Info : UTF-8 Plain Text
Duration : 3 min 25 s
Bit rate : 44 b/s
Count of elements : 40
Stream size : 1.11 KiB (0%)
Title : SDH
Language : English
Default : No
Forced : No

Text #2
ID : 4
Format : UTF-8
Codec ID : S_TEXT/UTF8
Codec ID/Info : UTF-8 Plain Text
Duration : 4 min 10 s
Bit rate : 27 b/s
Count of elements : 35
Stream size : 867 Bytes (0%)
Language : Polish
Default : No
Forced : No

Click Image To View Full Size


Click To View Screenshot
Click To View Screenshot
Click To View Screenshot

Download torrent

Love.at.First.Sight.2017.BDRip.x264-FLAME[PRiME] torrent

Description

Love.at.First.Sight.2017.BDRip.x264-FLAME[PRiME]

ImDb: http://www.imdb.com/title/tt6536772

Complete name : flame-love.at.first.sight.2017.bdrip.x264[PRiME].mkv
Format : Matroska
Format version : Version 4 / Version 2
File size : 36.4 MiB
Duration : 4 min 18 s
Overall bit rate : 1 180 kb/s
Encoded date : UTC 2017-05-10 21:08:43
Writing application : mkvmerge v11.0.0 (‘Alive’) 64bit
Writing library : libebml v1.3.4 + libmatroska v1.4.5

Video
ID : 1
Format : AVC
Format/Info : Advanced Video Codec
Format profile : [email protected]/* */
Format settings, CABAC : Yes
Format settings, ReFrames : 8 frames
Codec ID : V_MPEG4/ISO/AVC
Duration : 4 min 18 s
Bit rate : 1 028 kb/s
Width : 720 pixels
Height : 388 pixels
Display aspect ratio : 1.85:1
Frame rate mode : Constant
Frame rate : 23.976 (24000/1001) FPS
Color space : YUV
Chroma subsampling : 4:2:0
Bit depth : 8 bits
Scan type : Progressive
Bits/(Pixel*Frame) : 0.153
Stream size : 31.7 MiB (87%)
Writing library : x264 core 148 r2762 90a61ec
Encoding settings : cabac=1 / ref=8 / deblock=1:0:0 / analyse=0x3:0x133 / me=umh / subme=9 / psy=1 / psy_rd=1.00:0.00 / mixed_ref=1 / me_range=16 / chroma_me=1 / trellis=2 / 8x8dct=1 / cqm=0 / deadzone=21,11 / fast_pskip=0 / chroma_qp_offset=-2 / threads=12 / lookahead_threads=1 / sliced_threads=0 / nr=0 / decimate=1 / interlaced=0 / bluray_compat=0 / constrained_intra=0 / bframes=3 / b_pyramid=2 / b_adapt=2 / b_bias=0 / direct=3 / weightb=1 / open_gop=0 / weightp=2 / keyint=250 / keyint_min=23 / scenecut=40 / intra_refresh=0 / rc_lookahead=60 / rc=crf / mbtree=1 / crf=19.0 / qcomp=0.60 / qpmin=0 / qpmax=69 / qpstep=4 / ip_ratio=1.40 / aq=1:1.00
Language : English
Default : Yes
Forced : No
Color range : Limited
Matrix coefficients : BT.709

Audio
ID : 2
Format : AAC
Format/Info : Advanced Audio Codec
Format profile : LC
Codec ID : A_AAC
Duration : 4 min 18 s
Bit rate : 150 kb/s
Channel(s) : 2 channels
Channel positions : Front: L R
Sampling rate : 48.0 kHz
Frame rate : 46.875 FPS (1024 spf)
Compression mode : Lossy
Delay relative to video : 9 ms
Stream size : 4.61 MiB (13%)
Title : English AAC-LC 150 kbps
Language : English
Default : Yes
Forced : No

Text #1
ID : 3
Format : UTF-8
Codec ID : S_TEXT/UTF8
Codec ID/Info : UTF-8 Plain Text
Duration : 3 min 25 s
Bit rate : 44 b/s
Count of elements : 40
Stream size : 1.11 KiB (0%)
Language : English
Default : No
Forced : No

Text #2
ID : 4
Format : UTF-8
Codec ID : S_TEXT/UTF8
Codec ID/Info : UTF-8 Plain Text
Duration : 4 min 10 s
Bit rate : 27 b/s
Count of elements : 35
Stream size : 867 Bytes (0%)
Language : Polish
Default : No
Forced : No

Click Image To View Full Size


Click To View Screenshot
Click To View Screenshot
Click To View Screenshot

Download torrent

The.Bye.Bye.Man.2016.UNRATED.720p.BluRay.DD5.1.x264-SpaceHD[PRiME… torrent

Description

The.Bye.Bye.Man.2016.UNRATED.720p.BluRay.DD5.1.x264-SpaceHD[PRiME]

ImDb: http://www.imdb.com/title/tt6536772

Complete name : The.Bye.Bye.Man.2016.UNRATED.720p.BluRay.DD5.1.x264-SpaceHD[PRiME].mkv
Format : Matroska
Format version : Version 4 / Version 2
File size : 5.10 GiB
Duration : 1 h 39 min
Overall bit rate : 7 324 kb/s
Movie name : The.Bye.Bye.Man.2016.UNRATED.720p.BluRay.DD5.1.x264-SpaceHD
Encoded date : UTC 2017-05-03 15:42:23
Writing application : mkvmerge v10.0.0 (‘To Drown In You’) 64bit
Writing library : libebml v1.3.4 + libmatroska v1.4.5

Video
ID : 1
Format : AVC
Format/Info : Advanced Video Codec
Format profile : [email protected]/* */
Format settings, CABAC : Yes
Format settings, ReFrames : 9 frames
Codec ID : V_MPEG4/ISO/AVC
Duration : 1 h 39 min
Bit rate : 6 661 kb/s
Width : 1 280 pixels
Height : 692 pixels
Display aspect ratio : 1.85:1
Frame rate mode : Constant
Frame rate : 23.976 (24000/1001) FPS
Color space : YUV
Chroma subsampling : 4:2:0
Bit depth : 8 bits
Scan type : Progressive
Bits/(Pixel*Frame) : 0.314
Stream size : 4.64 GiB (91%)
Writing library : x264 core 148 r2744 b97ae06
Encoding settings : cabac=1 / ref=9 / deblock=1:-3:-3 / analyse=0x3:0x113 / me=umh / subme=10 / psy=1 / psy_rd=1.03:0.00 / mixed_ref=1 / me_range=32 / chroma_me=1 / trellis=2 / 8x8dct=1 / cqm=1 / deadzone=21,11 / fast_pskip=0 / chroma_qp_offset=-1 / threads=12 / lookahead_threads=2 / sliced_threads=0 / nr=0 / decimate=1 / interlaced=0 / bluray_compat=0 / constrained_intra=0 / bframes=8 / b_pyramid=2 / b_adapt=2 / b_bias=0 / direct=3 / weightb=1 / open_gop=0 / weightp=2 / keyint=230 / keyint_min=23 / scenecut=40 / intra_refresh=0 / rc_lookahead=40 / rc=crf / mbtree=0 / crf=14.2 / qcomp=0.63 / qpmin=10 / qpmax=69 / qpstep=4 / vbv_maxrate=62500 / vbv_bufsize=78125 / crf_max=0.0 / nal_hrd=none / filler=0 / ip_ratio=1.30 / pb_ratio=1.20 / aq=1:0.75
Language : English
Default : Yes
Forced : No

Audio
ID : 2
Format : AC-3
Format/Info : Audio Coding 3
Mode extension : CM (complete main)
Format settings, Endianness : Big
Codec ID : A_AC3
Duration : 1 h 39 min
Bit rate mode : Constant
Bit rate : 640 kb/s
Channel(s) : 6 channels
Channel positions : Front: L C R, Side: L R, LFE
Sampling rate : 48.0 kHz
Frame rate : 31.250 FPS (1536 spf)
Compression mode : Lossy
Stream size : 457 MiB (9%)
Language : English
Default : Yes
Forced : No

Text #1
ID : 3
Format : PGS
Muxing mode : zlib
Codec ID : S_HDMV/PGS
Codec ID/Info : Picture based subtitle format used on BDs/HD-DVDs
Duration : 1 h 32 min
Bit rate : 10.6 kb/s
Count of elements : 1882
Stream size : 7.06 MiB (0%)
Language : English
Default : Yes
Forced : No

Text #2
ID : 4
Format : PGS
Muxing mode : zlib
Codec ID : S_HDMV/PGS
Codec ID/Info : Picture based subtitle format used on BDs/HD-DVDs
Duration : 1 h 33 min
Bit rate : 12.0 kb/s
Count of elements : 1753
Stream size : 8.06 MiB (0%)
Language : French
Default : No
Forced : No

Menu
00:00:00.000 : en:Chapter 1
00:15:29.887 : en:Chapter 2
00:35:05.270 : en:Chapter 3
00:47:47.531 : en:Chapter 4
01:02:53.103 : en:Chapter 5
01:10:57.503 : en:Chapter 6
01:19:58.127 : en:Chapter 7
01:33:21.179 : en:Chapter 8

Click Image To View Full Size


Click To View Screenshot
Click To View Screenshot
Click To View Screenshot

Download torrent

Bahubali 2 (2017) DVDSCR – 576p – x264 – AAC – [DDR] torrent

Description

Bahubali 2 – The Conclusion (2017)
**DVDSCR / 576p / x264 / AAC2.0 **

[ SCREENS ]


Specs:

Format : Matroska
File size : 2.20 GiB
Duration : 2 h 42 min
Overall bit rate : 1 929 kb/s

Video:
Format : AVC
Format profile : [email protected]/* */
Format settings, ReFrames : 8 frames
Duration : 2 h 42 min
Bit rate : 1 800 kb/s
Width : 1 042 pixels
Height : 448 pixels
Display aspect ratio : 2.35:1
Frame rate : 24.000 FPS
Matrix coefficients : BT.709

Audio:
Format : AAC
Bit rate : 128 kb/s
Channel(s) : 2 channels
Channel positions : Front: L R
Sampling rate : 44.1 kHz
Language : Hindi

sample included in torrent

Download torrent

Total.Frat.Movie.2016.1080p.WEB-DL.DD5.1.H264-FGT[EtHD] torrent

Description

EtHD – ExtraTorrent High-Definition Movies

—————————————————–

Total.Frat.Movie.2016.1080p.WEB-DL.DD5.1.H264-FGT

http://www.imdb.com/title/tt3879074/

[Video Bitrate]:………….: 5504 kbps
[Duration]:………….: 1h 33mn
[Video Codec]:………….: AVC
[Resolution]:………….: 1912×1072 px
[Aspect Ratio]:………….: 16:9
[Audio Codec]:………….: AC-3
[Audio Bitrate]:………….: 384 kbps
[Audio Channels]:………….: 5.1ch
[Audio Language]:………….: English

Genre …………………..: Comedy

#EtHD -> To avoid fakes, ALWAYS check that the torrent was added by EtHD

http://extratorrent.cc/

Help us by donating with Bitcoin: 1MbtePmWNM13SEkQgmxF6RSvfaXugF7rpz

Screens…

https://extraimage.net/image/NOdV
https://extraimage.net/image/NOdu
https://extraimage.net/image/NOdv
https://extraimage.net/image/NOdA
https://extraimage.net/image/NOdW
https://extraimage.net/image/NOh2

Download torrent

Eddies.Life.Coach.2017.BDRip.x264-FLAME[PRiME] torrent

Description

Eddies.Life.Coach.2017.BDRip.x264-FLAME[PRiME]

ImDb: http://www.imdb.com/title/tt6536776

Complete name : flame-eddies.life.coach.2017.bdrip.x264[PRiME].mkv
Format : Matroska
Format version : Version 4 / Version 2
File size : 32.4 MiB
Duration : 4 min 16 s
Overall bit rate : 1 061 kb/s
Encoded date : UTC 2017-05-10 21:20:26
Writing application : mkvmerge v11.0.0 (‘Alive’) 64bit
Writing library : libebml v1.3.4 + libmatroska v1.4.5

Video
ID : 1
Format : AVC
Format/Info : Advanced Video Codec
Format profile : [email protected]/* */
Format settings, CABAC : Yes
Format settings, ReFrames : 8 frames
Codec ID : V_MPEG4/ISO/AVC
Duration : 4 min 16 s
Bit rate : 906 kb/s
Width : 720 pixels
Height : 388 pixels
Display aspect ratio : 1.85:1
Frame rate mode : Constant
Frame rate : 23.976 (24000/1001) FPS
Color space : YUV
Chroma subsampling : 4:2:0
Bit depth : 8 bits
Scan type : Progressive
Bits/(Pixel*Frame) : 0.135
Stream size : 27.7 MiB (85%)
Writing library : x264 core 148 r2762 90a61ec
Encoding settings : cabac=1 / ref=8 / deblock=1:0:0 / analyse=0x3:0x133 / me=umh / subme=9 / psy=1 / psy_rd=1.00:0.00 / mixed_ref=1 / me_range=16 / chroma_me=1 / trellis=2 / 8x8dct=1 / cqm=0 / deadzone=21,11 / fast_pskip=0 / chroma_qp_offset=-2 / threads=12 / lookahead_threads=1 / sliced_threads=0 / nr=0 / decimate=1 / interlaced=0 / bluray_compat=0 / constrained_intra=0 / bframes=3 / b_pyramid=2 / b_adapt=2 / b_bias=0 / direct=3 / weightb=1 / open_gop=0 / weightp=2 / keyint=250 / keyint_min=23 / scenecut=40 / intra_refresh=0 / rc_lookahead=60 / rc=crf / mbtree=1 / crf=19.0 / qcomp=0.60 / qpmin=0 / qpmax=69 / qpstep=4 / ip_ratio=1.40 / aq=1:1.00
Language : English
Default : Yes
Forced : No
Color range : Limited
Matrix coefficients : BT.709

Audio
ID : 2
Format : AAC
Format/Info : Advanced Audio Codec
Format profile : LC
Codec ID : A_AAC
Duration : 4 min 16 s
Bit rate : 152 kb/s
Channel(s) : 2 channels
Channel positions : Front: L R
Sampling rate : 48.0 kHz
Frame rate : 46.875 FPS (1024 spf)
Compression mode : Lossy
Delay relative to video : 9 ms
Stream size : 4.66 MiB (14%)
Title : English AAC-LC 152 kbps
Language : English
Default : Yes
Forced : No

Text #1
ID : 3
Format : UTF-8
Codec ID : S_TEXT/UTF8
Codec ID/Info : UTF-8 Plain Text
Duration : 3 min 37 s
Bit rate : 101 b/s
Count of elements : 83
Stream size : 2.70 KiB (0%)
Language : English
Default : No
Forced : No

Text #2
ID : 4
Format : UTF-8
Codec ID : S_TEXT/UTF8
Codec ID/Info : UTF-8 Plain Text
Duration : 4 min 13 s
Bit rate : 68 b/s
Count of elements : 73
Stream size : 2.12 KiB (0%)
Language : Polish
Default : No
Forced : No

Click Image To View Full Size


Click To View Screenshot
Click To View Screenshot
Click To View Screenshot

Download torrent

Gunter.Babysits.2017.1080p.BluRay.x264-FLAME[PRiME] torrent

Description

Gunter.Babysits.2017.1080p.BluRay.x264-FLAME[PRiME]

ImDb: http://www.imdb.com/title/tt6536766

Complete name : flame-gunter.babysits.2017.1080p.bluray.x264[PRiME].mkv
Format : Matroska
Format version : Version 4 / Version 2
File size : 289 MiB
Duration : 3 min 47 s
Overall bit rate : 10.6 Mb/s
Encoded date : UTC 2017-05-10 20:30:26
Writing application : mkvmerge v11.0.0 (‘Alive’) 64bit
Writing library : libebml v1.3.4 + libmatroska v1.4.5

Video
ID : 1
Format : AVC
Format/Info : Advanced Video Codec
Format profile : [email protected]/* */
Format settings, CABAC : Yes
Format settings, ReFrames : 4 frames
Codec ID : V_MPEG4/ISO/AVC
Duration : 3 min 47 s
Bit rate : 9 999 kb/s
Width : 1 920 pixels
Height : 1 040 pixels
Display aspect ratio : 1.85:1
Frame rate mode : Constant
Frame rate : 23.976 (24000/1001) FPS
Color space : YUV
Chroma subsampling : 4:2:0
Bit depth : 8 bits
Scan type : Progressive
Bits/(Pixel*Frame) : 0.209
Stream size : 271 MiB (94%)
Writing library : x264 core 148 r2762 90a61ec
Encoding settings : cabac=1 / ref=4 / deblock=1:-2:-2 / analyse=0x3:0x133 / me=umh / subme=9 / psy=1 / psy_rd=1.00:0.00 / mixed_ref=1 / me_range=16 / chroma_me=1 / trellis=2 / 8x8dct=1 / cqm=0 / deadzone=21,11 / fast_pskip=0 / chroma_qp_offset=-2 / threads=12 / lookahead_threads=1 / sliced_threads=0 / nr=0 / decimate=1 / interlaced=0 / bluray_compat=0 / constrained_intra=0 / bframes=3 / b_pyramid=2 / b_adapt=2 / b_bias=0 / direct=3 / weightb=1 / open_gop=0 / weightp=2 / keyint=250 / keyint_min=23 / scenecut=40 / intra_refresh=0 / rc_lookahead=60 / rc=2pass / mbtree=1 / bitrate=9999 / ratetol=1.0 / qcomp=0.60 / qpmin=10 / qpmax=69 / qpstep=4 / cplxblur=20.0 / qblur=0.5 / ip_ratio=1.40 / aq=1:0.70
Language : English
Default : Yes
Forced : No

Audio
ID : 2
Format : AC-3
Format/Info : Audio Coding 3
Mode extension : CM (complete main)
Format settings, Endianness : Big
Codec ID : A_AC3
Duration : 3 min 47 s
Bit rate mode : Constant
Bit rate : 640 kb/s
Channel(s) : 6 channels
Channel positions : Front: L C R, Side: L R, LFE
Sampling rate : 48.0 kHz
Frame rate : 31.250 FPS (1536 spf)
Compression mode : Lossy
Stream size : 17.4 MiB (6%)
Title : English AC3 640 kbps
Language : English
Default : Yes
Forced : No

Text #1
ID : 3
Format : UTF-8
Codec ID : S_TEXT/UTF8
Codec ID/Info : UTF-8 Plain Text
Duration : 3 min 14 s
Bit rate : 63 b/s
Count of elements : 64
Stream size : 1.50 KiB (0%)
Title : SDH
Language : English
Default : No
Forced : No

Text #2
ID : 4
Format : UTF-8
Codec ID : S_TEXT/UTF8
Codec ID/Info : UTF-8 Plain Text
Duration : 3 min 41 s
Bit rate : 42 b/s
Count of elements : 49
Stream size : 1.15 KiB (0%)
Language : Polish
Default : No
Forced : No

Click Image To View Full Size


Click To View Screenshot
Click To View Screenshot
Click To View Screenshot

Download torrent

Akahige.1965.720p.BRRip.x264.Japanese.AAC-ETRG torrent

Description

In 19th century Japan, a rough tempered yet charitable town doctor trains a young intern.

Toshirô Mifune :… Dr. Kyojô Niide
Yûzô Kayama :… Dr. Noboru Yasumoto
Tsutomu Yamazaki :… Sahachi
Reiko Dan :… Osugi

Video:-

Format : MP4 / x264 / [email protected]/* */
Duration : 03:05:31
Bitrate : 1000 Kbps
Resolution = (Width/Height) : 1280×504 pixels
Frame Rate : 23,976 fps

Audio:-

Format : AAC
Bitrate : 96 Kbps
Channels : 2 Channels
Sample Rate : 48 KHz
Language : Japanese

Release info:-

Encoded/Released By : Ozlem / ETRG
Title/Year : Akahige / 1965
File Size : 1.35 GiB
Genre : Drama
Source : Akahige.1965.720p.BluRay.x264-DON (Thank You)
Subtitles : English,English FORCED,Turkish,Polish
IMDB : http://www.imdb.com/title/tt0058888/

Note: This movie can be watched on TV,PC,tablets and phones with high quality.

If you have any problems with video/audio , Please update K Lite Mega Codec pack.

Tested on MPC,VLC,PS 3/4,PSP,XBOX 360,iTunes,ipad2,ipad mini,iphone 4/5S/6,Samsung Galaxy S5/S6/S7 EDGE and Gear VR,Samsung/LG/Vestel/SONY/Panasonic/Philips/Sharp/Toshiba/Beko/Arçelik/Sunny Smart TV

U can Follow Us on F a c e b o o k ==> encoder ozlem

https://www.facebook.com/ozlem.torrents

Please click on this link to reach all of ozlem encodes

Make sure it is Genuine ETRG release @ ExtraTorrent.cc or from our Trusted Accounts elswhere

Help us by donating with Bitcoin: 1MbtePmWNM13SEkQgmxF6RSvfaXugF7rpz


Download torrent

Gunter.Babysits.2017.720p.BluRay.x264-FLAME[PRiME] torrent

Description

Gunter.Babysits.2017.720p.BluRay.x264-FLAME[PRiME]

ImDb: http://www.imdb.com/title/tt6536766

Complete name : flame-gunter.babysits.2017.720p.bluray.x264[PRiME].mkv
Format : Matroska
Format version : Version 4 / Version 2
File size : 153 MiB
Duration : 3 min 47 s
Overall bit rate : 5 646 kb/s
Encoded date : UTC 2017-05-10 20:29:27
Writing application : mkvmerge v11.0.0 (‘Alive’) 64bit
Writing library : libebml v1.3.4 + libmatroska v1.4.5

Video
ID : 1
Format : AVC
Format/Info : Advanced Video Codec
Format profile : [email protected]/* */
Format settings, CABAC : Yes
Format settings, ReFrames : 8 frames
Codec ID : V_MPEG4/ISO/AVC
Duration : 3 min 47 s
Bit rate : 5 000 kb/s
Width : 1 280 pixels
Height : 688 pixels
Display aspect ratio : 1.85:1
Frame rate mode : Constant
Frame rate : 23.976 (24000/1001) FPS
Color space : YUV
Chroma subsampling : 4:2:0
Bit depth : 8 bits
Scan type : Progressive
Bits/(Pixel*Frame) : 0.237
Stream size : 136 MiB (89%)
Writing library : x264 core 148 r2762 90a61ec
Encoding settings : cabac=1 / ref=8 / deblock=1:-2:-2 / analyse=0x3:0x133 / me=umh / subme=9 / psy=1 / psy_rd=1.00:0.00 / mixed_ref=1 / me_range=16 / chroma_me=1 / trellis=2 / 8x8dct=1 / cqm=0 / deadzone=21,11 / fast_pskip=0 / chroma_qp_offset=-2 / threads=12 / lookahead_threads=1 / sliced_threads=0 / nr=0 / decimate=1 / interlaced=0 / bluray_compat=0 / constrained_intra=0 / bframes=3 / b_pyramid=2 / b_adapt=2 / b_bias=0 / direct=3 / weightb=1 / open_gop=0 / weightp=2 / keyint=250 / keyint_min=23 / scenecut=40 / intra_refresh=0 / rc_lookahead=60 / rc=2pass / mbtree=1 / bitrate=5000 / ratetol=1.0 / qcomp=0.60 / qpmin=10 / qpmax=69 / qpstep=4 / cplxblur=20.0 / qblur=0.5 / ip_ratio=1.40 / aq=1:0.70
Language : English
Default : Yes
Forced : No

Audio
ID : 2
Format : AC-3
Format/Info : Audio Coding 3
Mode extension : CM (complete main)
Format settings, Endianness : Big
Codec ID : A_AC3
Duration : 3 min 47 s
Bit rate mode : Constant
Bit rate : 640 kb/s
Channel(s) : 6 channels
Channel positions : Front: L C R, Side: L R, LFE
Sampling rate : 48.0 kHz
Frame rate : 31.250 FPS (1536 spf)
Compression mode : Lossy
Stream size : 17.4 MiB (11%)
Title : English AC3 640 kbps
Language : English
Default : Yes
Forced : No

Text #1
ID : 3
Format : UTF-8
Codec ID : S_TEXT/UTF8
Codec ID/Info : UTF-8 Plain Text
Duration : 3 min 14 s
Bit rate : 63 b/s
Count of elements : 64
Stream size : 1.50 KiB (0%)
Title : SDH
Language : English
Default : No
Forced : No

Text #2
ID : 4
Format : UTF-8
Codec ID : S_TEXT/UTF8
Codec ID/Info : UTF-8 Plain Text
Duration : 3 min 41 s
Bit rate : 42 b/s
Count of elements : 49
Stream size : 1.15 KiB (0%)
Language : Polish
Default : No
Forced : No

Click Image To View Full Size


Click To View Screenshot
Click To View Screenshot
Click To View Screenshot

Download torrent

Gunter.Babysits.2017.BDRip.x264-FLAME[PRiME] torrent

Description

Gunter.Babysits.2017.BDRip.x264-FLAME[PRiME]

ImDb: http://www.imdb.com/title/tt6536766

Complete name : flame-gunter.babysits.2017.bdrip.x264[PRiME].mkv
Format : Matroska
Format version : Version 4 / Version 2
File size : 37.9 MiB
Duration : 3 min 47 s
Overall bit rate : 1 395 kb/s
Encoded date : UTC 2017-05-10 20:42:24
Writing application : mkvmerge v11.0.0 (‘Alive’) 64bit
Writing library : libebml v1.3.4 + libmatroska v1.4.5

Video
ID : 1
Format : AVC
Format/Info : Advanced Video Codec
Format profile : [email protected]/* */
Format settings, CABAC : Yes
Format settings, ReFrames : 8 frames
Codec ID : V_MPEG4/ISO/AVC
Duration : 3 min 47 s
Bit rate : 1 239 kb/s
Width : 720 pixels
Height : 388 pixels
Display aspect ratio : 1.85:1
Frame rate mode : Constant
Frame rate : 23.976 (24000/1001) FPS
Color space : YUV
Chroma subsampling : 4:2:0
Bit depth : 8 bits
Scan type : Progressive
Bits/(Pixel*Frame) : 0.185
Stream size : 33.6 MiB (89%)
Writing library : x264 core 148 r2762 90a61ec
Encoding settings : cabac=1 / ref=8 / deblock=1:0:0 / analyse=0x3:0x133 / me=umh / subme=9 / psy=1 / psy_rd=1.00:0.00 / mixed_ref=1 / me_range=16 / chroma_me=1 / trellis=2 / 8x8dct=1 / cqm=0 / deadzone=21,11 / fast_pskip=0 / chroma_qp_offset=-2 / threads=12 / lookahead_threads=1 / sliced_threads=0 / nr=0 / decimate=1 / interlaced=0 / bluray_compat=0 / constrained_intra=0 / bframes=3 / b_pyramid=2 / b_adapt=2 / b_bias=0 / direct=3 / weightb=1 / open_gop=0 / weightp=2 / keyint=250 / keyint_min=23 / scenecut=40 / intra_refresh=0 / rc_lookahead=60 / rc=crf / mbtree=1 / crf=19.0 / qcomp=0.60 / qpmin=0 / qpmax=69 / qpstep=4 / ip_ratio=1.40 / aq=1:1.00
Language : English
Default : Yes
Forced : No
Color range : Limited
Matrix coefficients : BT.709

Audio
ID : 2
Format : AAC
Format/Info : Advanced Audio Codec
Format profile : LC
Codec ID : A_AAC
Duration : 3 min 47 s
Bit rate : 154 kb/s
Channel(s) : 2 channels
Channel positions : Front: L R
Sampling rate : 48.0 kHz
Frame rate : 46.875 FPS (1024 spf)
Compression mode : Lossy
Delay relative to video : 9 ms
Stream size : 4.18 MiB (11%)
Title : English AAC-LC 154 kbps
Language : English
Default : Yes
Forced : No

Text #1
ID : 3
Format : UTF-8
Codec ID : S_TEXT/UTF8
Codec ID/Info : UTF-8 Plain Text
Duration : 3 min 14 s
Bit rate : 63 b/s
Count of elements : 64
Stream size : 1.50 KiB (0%)
Language : English
Default : No
Forced : No

Text #2
ID : 4
Format : UTF-8
Codec ID : S_TEXT/UTF8
Codec ID/Info : UTF-8 Plain Text
Duration : 3 min 41 s
Bit rate : 42 b/s
Count of elements : 49
Stream size : 1.15 KiB (0%)
Language : Polish
Default : No
Forced : No

Click Image To View Full Size


Click To View Screenshot
Click To View Screenshot
Click To View Screenshot

Download torrent

2307.Winters.Dream.2016.720p.BluRay.x264.DTS-FGT[EtHD] torrent

Description

EtHD – ExtraTorrent High-Definition Movies

—————————————————–

2307.Winters.Dream.2016.720p.BluRay.x264.DTS-FGT

http://www.imdb.com/title/tt4261326/

[Video Bitrate]:………….: 6880 kbps
[Duration]:………….: 1h 41mn
[Video Codec]:………….: AVC
[Resolution]:………….: 1280×536 px
[Aspect Ratio]:………….: 2.40:1
[Audio Codec]:………….: DTS
[Audio Bitrate]:………….: 1509 kbps
[Audio Channels]:………….: 5.1ch
[Audio Language]:………….: English

Genre …………………..: Sci-Fi

#EtHD -> To avoid fakes, ALWAYS check that the torrent was added by EtHD

http://extratorrent.cc/

Help us by donating with Bitcoin: 1MbtePmWNM13SEkQgmxF6RSvfaXugF7rpz

Screens…

https://extraimage.net/image/NOhj
https://extraimage.net/image/NOhn
https://extraimage.net/image/NOhs
https://extraimage.net/image/NOh7
https://extraimage.net/image/NOhc
https://extraimage.net/image/NOhq

Download torrent

[bonkai77] ERASED [1080p] [DUAL-AUDIO] [x265] [HEVC] [AAC] [10bit… torrent

Description

Direct Download Links Available @ http://cleoencodes.blogspot.com/

[bonkai77]

File Container: MKV
Video Format: h.265/HEVC [10-bit]
Video Resolution: 1920×1080
Aspect Ratio: 16.9

Audio Type: Mixed
Track 1: English (2.0 Stereo) (default)
Track 2: Japanese (2.0 Stereo)

Audio Format: AAC-HE

Subtitles: (ASS)
Track 1: Signs & Songs (Default)
Track 2: Full Subtitles (GJM-eraser modified)
Track 3: English Commentary 2.0ch FLAC 16bit (Episodes 01, 06, 07, 08, 11 & 12)

Video Source:

Bluray | MKV | h264 10-bit | 1080p | FLAC 2.0 | Dual Audio | Softsubs (Kametsu)

Download torrent

[HorribleSubs] Zero kara Hajimeru Mahou no Sho – 05 [480p].mkv torrent

Description

94cc6cb35fec72bd1848382849409879.jpg

JAPANESE AUDIO | ENGLISH SUBTITLESDetailsAlternative Titles

Synonyms: Grimoire of Zero

Japanese: ゼロから始める魔法の書

Information

Type: TV

Episodes: 12

Status: Currently Airing

Aired: Apr 10, 2017 to 2017

Premiered: Spring 2017

Broadcast: Mondays at 23:30 (JST)

Producers: Lantis, Half H.P Studio, Happinet Pictures, Infinite

Licensors: Sentai Filmworks

Studios: White Fox

Source: Light novel

Genres: Action, Fantasy

Duration: 24 min. per ep.

Synopsis

Year 526 of the Liturgical Calendar. The world knew that witches existed, and that they practiced the notorious art of sorcery. Nevertheless, the world did not know anything about the study of magic.Our story follows a half-man, half-beast mercenary; humans mockingly call his kind the “fallen beasts.” He always dreamt of becoming a human, but one day, he met a witch who would change his life forever.”Do you desire a human form? Then be my escort, mercenary!” The witch introduced herself as “Zero,” and explained that she was searching for a one-of-a-kind magical tome that bandits had stolen from her lair. Entitled “The Book of Zero,” the grimoire supposedly contained valuable magical knowledge that could be used to effortlessly bring the world to its knees.Thus, in order to realize his dream of becoming a human, the mercenary must accompany Zero on her journey—despite her being one of the witches he so loathed.This is the story of a haughty sorceress and a kindhearted beast.

Download torrent

[HorribleSubs] Zero kara Hajimeru Mahou no Sho – 05 [720p].mkv torrent

Description

94cc6cb35fec72bd1848382849409879.jpg

JAPANESE AUDIO | ENGLISH SUBTITLESDetailsAlternative Titles

Synonyms: Grimoire of Zero

Japanese: ゼロから始める魔法の書

Information

Type: TV

Episodes: 12

Status: Currently Airing

Aired: Apr 10, 2017 to 2017

Premiered: Spring 2017

Broadcast: Mondays at 23:30 (JST)

Producers: Lantis, Half H.P Studio, Happinet Pictures, Infinite

Licensors: Sentai Filmworks

Studios: White Fox

Source: Light novel

Genres: Action, Fantasy

Duration: 24 min. per ep.

Synopsis

Year 526 of the Liturgical Calendar. The world knew that witches existed, and that they practiced the notorious art of sorcery. Nevertheless, the world did not know anything about the study of magic.Our story follows a half-man, half-beast mercenary; humans mockingly call his kind the “fallen beasts.” He always dreamt of becoming a human, but one day, he met a witch who would change his life forever.”Do you desire a human form? Then be my escort, mercenary!” The witch introduced herself as “Zero,” and explained that she was searching for a one-of-a-kind magical tome that bandits had stolen from her lair. Entitled “The Book of Zero,” the grimoire supposedly contained valuable magical knowledge that could be used to effortlessly bring the world to its knees.Thus, in order to realize his dream of becoming a human, the mercenary must accompany Zero on her journey—despite her being one of the witches he so loathed.This is the story of a haughty sorceress and a kindhearted beast.

Download torrent

[HorribleSubs] Zero kara Hajimeru Mahou no Sho – 05 [1080p].mkv torrent

Description

94cc6cb35fec72bd1848382849409879.jpg

JAPANESE AUDIO | ENGLISH SUBTITLESDetailsAlternative Titles

Synonyms: Grimoire of Zero

Japanese: ゼロから始める魔法の書

Information

Type: TV

Episodes: 12

Status: Currently Airing

Aired: Apr 10, 2017 to 2017

Premiered: Spring 2017

Broadcast: Mondays at 23:30 (JST)

Producers: Lantis, Half H.P Studio, Happinet Pictures, Infinite

Licensors: Sentai Filmworks

Studios: White Fox

Source: Light novel

Genres: Action, Fantasy

Duration: 24 min. per ep.

Synopsis

Year 526 of the Liturgical Calendar. The world knew that witches existed, and that they practiced the notorious art of sorcery. Nevertheless, the world did not know anything about the study of magic.Our story follows a half-man, half-beast mercenary; humans mockingly call his kind the “fallen beasts.” He always dreamt of becoming a human, but one day, he met a witch who would change his life forever.”Do you desire a human form? Then be my escort, mercenary!” The witch introduced herself as “Zero,” and explained that she was searching for a one-of-a-kind magical tome that bandits had stolen from her lair. Entitled “The Book of Zero,” the grimoire supposedly contained valuable magical knowledge that could be used to effortlessly bring the world to its knees.Thus, in order to realize his dream of becoming a human, the mercenary must accompany Zero on her journey—despite her being one of the witches he so loathed.This is the story of a haughty sorceress and a kindhearted beast.

Download torrent

[AnimeRG] Starmyu Season 2 – 6 [1280×720] [English Sub] [Web-DL] [Pseudo-ReleaseBitch].mkv torrent

Description

If you Find any corruption or errors in encoding, Please mention in comments or site chat.

..::Video Specs::..

Source : CrunchyRoll

Format/Info : Advanced Video Codec

Resolution : 1280×720

Frame Rate : 23.976 fps

..::Audio Specs::..

Format/Info : Advanced Audio Codec

Channels : 2 channels

Sample Rate : 48KHz

Language : Japanese

..::Subtitles::..

Language : English

Type : Soft Coded

Format : –

Download torrent

[Cleo] Dragon Ball Super – 016 [Dual Audio 10bit BD720p][HEVC-x265] torrent

Description

cleo_encodes_anime.jpg

AFTER DOWNLOADING DON’T FORGET TO SEED

Direct Download Links Available @ http://cleoencodes.blogspot.com

Source: BDMV Raws: kakeruSMC: RndUser (Subs: DragonTeam)

Alternative Titles

English: Dragon Ball Super

Synonyms: Dragon Ball Chou

Japanese: ドラゴンボール超(スーパー)

Information

Type: TV

Episodes: Unknown

Status: Currently Airing

Aired: Jul 5, 2015 to ?

Premiered: Summer 2015

Broadcast: Sundays at 09:00 (JST)

Producers: Yomiko Advertising, Fuji TV

Licensors: FUNimation Entertainment

Studios: Toei Animation

Source: Manga

Genres: Action, Adventure, Comedy, Super Power, Martial Arts, Fantasy, Shounen

Duration: 23 min.

Rating: PG-13 – Teens 13 or older

Synopsis

Set just after the events of the Buu Saga of Dragon Ball Z, a deadly threat awakens once more. People lived in peace without knowing who the true heroes were during the devastating battle against Majin Buu. The powerful Dragon Balls have prevented any permanent damage, and our heroes also continue to live a normal life. In the far reaches of the universe, however, a powerful being awakens early from his slumber, curious about a prophecy of his defeat.

Join Gokuu, Piccolo, Vegeta, Gohan, and the rest of the Dragon Ball crew as they tackle the strongest opponent they have ever faced. Beerus, the god of destruction, now sets his curious sights on Earth. Will the heroes save the day and prevent earth’s destruction? Or will the whims of a bored god prove too powerful for the Saiyans? Gokuu faces impossible odds once more and fights for the safety of his loved ones and the planet.

Download torrent

[Cleo] Dragon Ball Super – 017 [Dual Audio 10bit BD720p][HEVC-x265] torrent

Description

cleo_encodes_anime.jpg

AFTER DOWNLOADING DON’T FORGET TO SEED

Direct Download Links Available @ http://cleoencodes.blogspot.com

Source: BDMV Raws: kakeruSMC: RndUser (Subs: DragonTeam)

Alternative Titles

English: Dragon Ball Super

Synonyms: Dragon Ball Chou

Japanese: ドラゴンボール超(スーパー)

Information

Type: TV

Episodes: Unknown

Status: Currently Airing

Aired: Jul 5, 2015 to ?

Premiered: Summer 2015

Broadcast: Sundays at 09:00 (JST)

Producers: Yomiko Advertising, Fuji TV

Licensors: FUNimation Entertainment

Studios: Toei Animation

Source: Manga

Genres: Action, Adventure, Comedy, Super Power, Martial Arts, Fantasy, Shounen

Duration: 23 min.

Rating: PG-13 – Teens 13 or older

Synopsis

Set just after the events of the Buu Saga of Dragon Ball Z, a deadly threat awakens once more. People lived in peace without knowing who the true heroes were during the devastating battle against Majin Buu. The powerful Dragon Balls have prevented any permanent damage, and our heroes also continue to live a normal life. In the far reaches of the universe, however, a powerful being awakens early from his slumber, curious about a prophecy of his defeat.

Join Gokuu, Piccolo, Vegeta, Gohan, and the rest of the Dragon Ball crew as they tackle the strongest opponent they have ever faced. Beerus, the god of destruction, now sets his curious sights on Earth. Will the heroes save the day and prevent earth’s destruction? Or will the whims of a bored god prove too powerful for the Saiyans? Gokuu faces impossible odds once more and fights for the safety of his loved ones and the planet.

Download torrent

Dawn.of.Andromeda-RELOADED torrent

Description

Dawn of Andromeda

Titolo: Dawn of Andromeda
Genere: Indie, Strategia
Sviluppatore: Grey Wolf Entertainment
Editore: Iceberg Interactive
Data di rilascio: 4 mag 2017
LINGUA: Eng

Andromeda ha visto giorni più silenziosi, ed è su di te prendere le redini di una di molte civiltà e guidarla attraverso i molti pericoli nascosti nella galassia. L’alba di Andromeda è un gioco in pausa, in tempo reale, 4X, incentrato sulla creazione di un’esperienza accessibile, veloce, divertente ed immersiva che ti permette di giocare veramente come imperatore. Costruisci il tuo impero, colonizza nuovi pianeti, interagisce con altre fazioni e personaggi, ricerca nuove tecnologie e costruisci flotte così potenti, i tuoi nemici tremano.

Esplora una galassia piena di diverse fazioni, fuorilegge, commercianti, clan di pirata e mercenari, ma anche anomalie, buchi neri, manufatti antichi, rovine e molto altro ancora. Arrivare in un nuovo sistema può fornire nuove opportunità o aprire una nuova lattina di vermi.

Sistema operativo: Windows Vista / 7 / 8 / 10 64 bit (32 bit NOT supported!)
Processore: 3.0 Ghz Intel Core i3 or equivalent
Memoria: 4 GB di RAM
Scheda video: 1 GB nVidia Geforce GT460 or equivalent
DirectX: Versione 9.0c
Rete: Connessione Internet a banda larga
Memoria: 2 GB di spazio disponibile
Scheda audio: DirectX 9 Compatible Audio

Sistema operativo: Windows Vista / 7 / 8 / 10 64 bit (32 bit NOT supported!)
Processore: 3.5 Ghz Intel Core i5 or equivalent
Memoria: 8 GB di RAM
Scheda video: 1 GB nVidia Geforce GTX660 or equivalent, 1 GB ATI HD7850 or equivalent
DirectX: Versione 9.0c
Rete: Connessione Internet a banda larga
Memoria: 2 GB di spazio disponibile
Scheda audio: DirectX 9 Compatible Audio

1. Unrar.
2. Burn or mount the image.
3. Install the game.
4. Copy over the cracked content from the /Crack directory on the image to
your game install directory.
5. Play the game.
6. Support the software developers. If you like this game, BUY IT!

Orario: Sempre Attivo
Banda: 2MB

Download torrent

[Pluralsight] Game Prototyping in Unity torrent

Description

Title: Game Prototyping in Unity
Author: MJ Johns
Site: Pluralsight.com
Released: 05 May 2017
Description: Have you ever wondered how to get started making a game from scratch? In this course, Game Prototyping in Unity, you’ll learn just that, covering all of the steps needed to build a playable prototype. First, you’ll explore how to create a simple level layout in Unity using whiteboxing techniques. Next, you’ll learn how to add art, sounds, and lighting to bring the level to life. Finally, you’ll discover how to add functionality and player feedback using simple scripts in C# to create a playable experience. When you’re finished with this course, you’ll be able to bring your game ideas to fruition using prototyping techniques and the Unity game engine. Software required: Unity.

https://app.pluralsight.com/player?author=megan-johns&name=unity-game-prototyping-m0&mode=live&clip=0&course=unity-game-prototyping

Download torrent