Risen (2016) (1080p BluRay x265 HEVC 10bit AAC 5.1 Joy) [UTR] torrent

Description

gv8mpWw.pngMedia Info

General

Format : Matroska

Format version : Version 4 / Version 2

File size : 1.32 GiB

Duration : 1 h 47 min

Overall bit rate : 1 757 kb/s

Encoded date : UTC 2017-03-30 03:23:46

Writing application : mkvmerge v9.9.0 (‘Pick Up’) 64bit

Writing library : libebml v1.3.4 + libmatroska v1.4.5

Video

ID : 1

Format : HEVC

Format/Info : High Efficiency Video Coding

Format profile : Main [email protected]/* */@Main

Codec ID : V_MPEGH/ISO/HEVC

Duration : 1 h 47 min

Bit rate : 1 542 kb/s

Width : 1 920 pixels

Height : 800 pixels

Display aspect ratio : 2.40:1

Frame rate mode : Constant

Frame rate : 23.976 (24000/1001) FPS

Color space : YUV

Chroma subsampling : 4:2:0

Bit depth : 10 bits

Bits/(Pixel*Frame) : 0.042

Stream size : 1.16 GiB (88%)

Writing library : x265 2.3+23-97435a0870be:[Windows][GCC 6.3.0][64 bit] 10bit

Encoding settings : cpuid=1173503 / frame-threads=3 / numa-pools=8 / wpp / no-pmode / no-pme / no-psnr / no-ssim / log-level=2 / input-csp=1 / input-res=1920×800 / interlace=0 / total-frames=154852 / level-idc=0 / high-tier=1 / uhd-bd=0 / ref=3 / no-allow-non-conformance / no-repeat-headers / annexb / no-aud / no-hrd / info / hash=0 / no-temporal-layers / open-gop / min-keyint=23 / keyint=250 / bframes=4 / b-adapt=2 / b-pyramid / bframe-bias=0 / rc-lookahead=20 / lookahead-slices=5 / scenecut=40 / no-intra-refresh / ctu=64 / min-cu-size=8 / no-rect / no-amp / max-tu-size=32 / tu-inter-depth=1 / tu-intra-depth=1 / limit-tu=0 / rdoq-level=0 / dynamic-rd=0.00 / signhide / no-tskip / nr-intra=50 / nr-inter=50 / no-constrained-intra / strong-intra-smoothing / max-merge=2 / limit-refs=3 / no-limit-modes / me=1 / subme=2 / merange=57 / temporal-mvp / weightp / no-weightb / no-analyze-src-pics / deblock=0:0 / sao / no-sao-non-deblock / rd=5 / early-skip / rskip / fast-intra / no-tskip-fast / no-cu-lossless / no-b-intra / rdpenalty=0 / psy-rd=0.30 / psy-rdoq=0.00 / no-rd-refine / analysis-mode=0 / no-lossless / cbqpoffs=0 / crqpoffs=0 / rc=abr / bitrate=1543 / qcomp=0.60 / qpstep=4 / stats-write=0 / stats-read=2 / cplxblur=20.0 / qblur=0.5 / ipratio=1.40 / pbratio=1.30 / aq-mode=3 / aq-strength=1.00 / cutree / zone-count=0 / no-strict-cbr / qg-size=32 / no-rc-grain / qpmax=69 / qpmin=0 / sar=0 / overscan=0 / videoformat=5 / range=1 / colorprim=1 / transfer=1 / colormatrix=1 / chromaloc=0 / display-window=0 / max-cll=0,0 / min-luma=0 / max-luma=1023 / log2-max-poc-lsb=8 / vui-timing-info / vui-hrd-info / slices=1 / opt-qp-pps / opt-ref-list-length-pps / no-multi-pass-opt-rps / scenecut-bias=0.05 / no-opt-cu-delta-qp / no-aq-motion / no-hdr / no-hdr-opt / refine-level=5

Default : Yes

Forced : No

Color range : Full

Color primaries : BT.709

Transfer characteristics : BT.709

Matrix coefficients : BT.709

Audio

ID : 2

Format : AAC

Format/Info : Advanced Audio Codec

Format profile : HE-AAC / LC

Codec ID : A_AAC

Duration : 1 h 47 min

Bit rate : 212 kb/s

Channel(s) : 6 channels

Channel positions : Front: L C R, Side: L R, LFE

Sampling rate : 48.0 kHz / 24.0 kHz

Frame rate : 23.438 FPS (1024 spf)

Compression mode : Lossy

Delay relative to video : 40 ms

Stream size : 163 MiB (12%)

Language : English

Default : No

Forced : No

Subtitle #1

ID : 3

Format : UTF-8

Codec ID : S_TEXT/UTF8

Codec ID/Info : UTF-8 Plain Text

Duration : 1 h 36 min

Bit rate : 37 b/s

Count of elements : 1005

Stream size : 26.7 KiB (0%)

Language : English

Default : No

Forced : No

Subtitle #2

ID : 4

Format : UTF-8

Codec ID : S_TEXT/UTF8

Codec ID/Info : UTF-8 Plain Text

Duration : 2 s 970 ms

Bit rate : 86 b/s

Count of elements : 1

Stream size : 32.0 Bytes (0%)

Language : French

Default : No

Forced : No

Subtitle #3

ID : 5

Format : UTF-8

Codec ID : S_TEXT/UTF8

Codec ID/Info : UTF-8 Plain Text

Duration : 1 h 45 min

Bit rate : 33 b/s

Count of elements : 990

Stream size : 25.7 KiB (0%)

Language : French

Default : No

Forced : No

Menu

00:00:00.000 : en:(01)00:00:00:000

00:06:50.243 : en:(02)00:06:50:243

00:14:18.732 : en:(03)00:14:18:732

00:21:48.181 : en:(04)00:21:48:181

00:27:35.195 : en:(05)00:27:35:195

00:33:21.082 : en:(06)00:33:21:082

00:40:03.984 : en:(07)00:40:03:984

00:46:19.193 : en:(08)00:46:19:193

00:54:06.243 : en:(09)00:54:06:243

01:00:06.477 : en:(10)01:00:06:477

01:07:53.027 : en:(11)01:07:53:027

01:13:54.847 : en:(12)01:13:54:847

01:19:46.656 : en:(13)01:19:46:656

01:25:42.387 : en:(14)01:25:42:387

01:33:16.132 : en:(15)01:33:16:132

01:38:41.832 : en:(16)01:38:41:832

Risen 2016 2160p 4K UltraHD BluRay HEVC 10bit DTS-HD 5.1 -DDR.mkv (42236713634 GBs)0a55f7541834280.jpg0d97d3541834281.jpgdecc1b541834283.jpge38d7b541834285.jpg

Download torrent

Girlfriends Day (2017) (1080p WEBRip x265 HEVC 10bit AAC 5.1 Joy) [UTR] torrent

Description

gv8mpWw.pngMedia Info

General

Format : Matroska

Format version : Version 4 / Version 2

File size : 554 MiB

Duration : 1 h 10 min

Overall bit rate : 1 095 kb/s

Encoded date : UTC 2017-03-31 09:35:06

Writing application : mkvmerge v9.6.0 (‘Slave To Your Mind’) 64bit

Writing library : libebml v1.3.4 + libmatroska v1.4.5

Video

ID : 1

Format : HEVC

Format/Info : High Efficiency Video Coding

Format profile : Main [email protected]/* */@Main

Codec ID : V_MPEGH/ISO/HEVC

Duration : 1 h 10 min

Bit rate : 906 kb/s

Width : 1 920 pixels

Height : 800 pixels

Display aspect ratio : 2.40:1

Frame rate mode : Constant

Frame rate : 23.976 (24000/1001) FPS

Color space : YUV

Chroma subsampling : 4:2:0

Bit depth : 10 bits

Bits/(Pixel*Frame) : 0.025

Stream size : 456 MiB (82%)

Writing library : x265 2.2+35-fe2f2dd96f8c:[Windows][GCC 6.3.0][64 bit] 10bit

Encoding settings : cpuid=1173503 / frame-threads=3 / numa-pools=8 / wpp / no-pmode / no-pme / no-psnr / no-ssim / log-level=2 / input-csp=1 / input-res=1920×800 / interlace=0 / total-frames=101171 / level-idc=0 / high-tier=1 / uhd-bd=0 / ref=3 / no-allow-non-conformance / no-repeat-headers / annexb / no-aud / no-hrd / info / hash=0 / no-temporal-layers / open-gop / min-keyint=23 / keyint=250 / bframes=4 / b-adapt=2 / b-pyramid / bframe-bias=0 / rc-lookahead=20 / lookahead-slices=5 / scenecut=40 / no-intra-refresh / ctu=64 / min-cu-size=8 / no-rect / no-amp / max-tu-size=32 / tu-inter-depth=1 / tu-intra-depth=1 / limit-tu=0 / rdoq-level=0 / dynamic-rd=0.00 / signhide / no-tskip / nr-intra=0 / nr-inter=0 / no-constrained-intra / strong-intra-smoothing / max-merge=2 / limit-refs=3 / no-limit-modes / me=1 / subme=2 / merange=57 / temporal-mvp / weightp / no-weightb / no-analyze-src-pics / deblock=0:0 / no-sao / no-sao-non-deblock / rd=3 / early-skip / rskip / fast-intra / no-tskip-fast / no-cu-lossless / no-b-intra / rdpenalty=0 / psy-rd=0.30 / psy-rdoq=0.00 / no-rd-refine / analysis-mode=0 / no-lossless / cbqpoffs=0 / crqpoffs=0 / rc=abr / bitrate=905 / qcomp=0.60 / qpstep=4 / stats-write=0 / stats-read=2 / cplxblur=20.0 / qblur=0.5 / ipratio=1.40 / pbratio=1.30 / aq-mode=3 / aq-strength=1.00 / cutree / zone-count=0 / no-strict-cbr / qg-size=32 / no-rc-grain / qpmax=69 / qpmin=0 / sar=0 / overscan=0 / videoformat=5 / range=0 / colorprim=2 / transfer=2 / colormatrix=2 / chromaloc=0 / display-window=0 / max-cll=0,0 / min-luma=0 / max-luma=1023 / log2-max-poc-lsb=8 / vui-timing-info / vui-hrd-info / slices=1 / opt-qp-pps / opt-ref-list-length-pps / no-multi-pass-opt-rps / scenecut-bias=0.05 / no-opt-cu-delta-qp / no-aq-motion / no-hdr

Default : Yes

Forced : No

Audio

ID : 2

Format : AAC

Format/Info : Advanced Audio Codec

Format profile : HE-AAC / LC

Codec ID : A_AAC

Duration : 1 h 10 min

Bit rate : 192 kb/s

Channel(s) : 6 channels

Channel positions : Front: L C R, Side: L R, LFE

Sampling rate : 48.0 kHz / 24.0 kHz

Frame rate : 23.438 FPS (1024 spf)

Compression mode : Lossy

Delay relative to video : 31 ms

Stream size : 96.8 MiB (17%)

Language : English

Default : No

Forced : No

Subtitle #1

ID : 3

Format : UTF-8

Codec ID : S_TEXT/UTF8

Codec ID/Info : UTF-8 Plain Text

Duration : 1 h 5 min

Bit rate : 66 b/s

Count of elements : 1148

Stream size : 32.1 KiB (0%)

Language : English

Default : No

Forced : No

Subtitle #2

ID : 4

Format : UTF-8

Codec ID : S_TEXT/UTF8

Codec ID/Info : UTF-8 Plain Text

Duration : 1 h 9 min

Bit rate : 56 b/s

Count of elements : 1046

Stream size : 29.1 KiB (0%)

Language : French

Default : No

Forced : No

Subtitle #3

ID : 5

Format : UTF-8

Codec ID : S_TEXT/UTF8

Codec ID/Info : UTF-8 Plain Text

Duration : 1 h 9 min

Bit rate : 57 b/s

Count of elements : 1072

Stream size : 29.4 KiB (0%)

Language : German

Default : No

Forced : No

Subtitle #4

ID : 6

Format : UTF-8

Codec ID : S_TEXT/UTF8

Codec ID/Info : UTF-8 Plain Text

Duration : 1 h 5 min

Bit rate : 57 b/s

Count of elements : 1067

Stream size : 27.8 KiB (0%)

Language : Spanish

Default : No

Forced : No

Girlfriends.Day.2017.2160p.NF.WEBRip.DD5.1.x264-TrollUHD.mkv (5906284433 GBs)e19cd2541834243.jpg51e64d541834246.jpg3a3d36541834248.jpgf9fadc541834251.jpg

Download torrent

Girlfriends Day (2017) (4K 2160p WEBRip x265 HEVC 10bit AAC 5.1 Joy) [UTR] torrent

Description

gv8mpWw.pngMedia Info

General

Format : Matroska

Format version : Version 4 / Version 2

File size : 2.08 GiB

Duration : 1 h 10 min

Overall bit rate : 4 221 kb/s

Encoded date : UTC 2017-03-31 08:01:44

Writing application : mkvmerge v9.6.0 (‘Slave To Your Mind’) 64bit

Writing library : libebml v1.3.4 + libmatroska v1.4.5

Video

ID : 1

Format : HEVC

Format/Info : High Efficiency Video Coding

Format profile : Main [email protected]/* */@Main

Codec ID : V_MPEGH/ISO/HEVC

Duration : 1 h 10 min

Bit rate : 4 019 kb/s

Width : 3 840 pixels

Height : 1 604 pixels

Display aspect ratio : 2.40:1

Frame rate mode : Constant

Frame rate : 23.976 (24000/1001) FPS

Color space : YUV

Chroma subsampling : 4:2:0

Bit depth : 10 bits

Bits/(Pixel*Frame) : 0.027

Stream size : 1.97 GiB (95%)

Writing library : x265 2.2+35-fe2f2dd96f8c:[Windows][GCC 6.3.0][64 bit] 10bit

Encoding settings : cpuid=1173503 / frame-threads=3 / numa-pools=8 / wpp / no-pmode / no-pme / no-psnr / no-ssim / log-level=2 / input-csp=1 / input-res=3840×1604 / interlace=0 / total-frames=101171 / level-idc=0 / high-tier=1 / uhd-bd=0 / ref=3 / no-allow-non-conformance / no-repeat-headers / annexb / no-aud / no-hrd / info / hash=0 / no-temporal-layers / open-gop / min-keyint=23 / keyint=250 / bframes=4 / b-adapt=2 / b-pyramid / bframe-bias=0 / rc-lookahead=20 / lookahead-slices=8 / scenecut=40 / no-intra-refresh / ctu=64 / min-cu-size=8 / no-rect / no-amp / max-tu-size=32 / tu-inter-depth=1 / tu-intra-depth=1 / limit-tu=0 / rdoq-level=0 / dynamic-rd=0.00 / signhide / no-tskip / nr-intra=100 / nr-inter=100 / no-constrained-intra / strong-intra-smoothing / max-merge=2 / limit-refs=3 / no-limit-modes / me=1 / subme=2 / merange=57 / temporal-mvp / weightp / no-weightb / no-analyze-src-pics / deblock=0:0 / sao / no-sao-non-deblock / rd=3 / early-skip / rskip / fast-intra / no-tskip-fast / no-cu-lossless / no-b-intra / rdpenalty=0 / psy-rd=0.30 / psy-rdoq=0.00 / no-rd-refine / analysis-mode=0 / no-lossless / cbqpoffs=0 / crqpoffs=0 / rc=abr / bitrate=4022 / qcomp=0.60 / qpstep=4 / stats-write=0 / stats-read=2 / cplxblur=20.0 / qblur=0.5 / ipratio=1.40 / pbratio=1.30 / aq-mode=3 / aq-strength=1.00 / cutree / zone-count=0 / no-strict-cbr / qg-size=32 / no-rc-grain / qpmax=69 / qpmin=0 / sar=0 / overscan=0 / videoformat=5 / range=0 / colorprim=2 / transfer=2 / colormatrix=2 / chromaloc=0 / display-window=0 / max-cll=0,0 / min-luma=0 / max-luma=1023 / log2-max-poc-lsb=8 / vui-timing-info / vui-hrd-info / slices=1 / opt-qp-pps / opt-ref-list-length-pps / no-multi-pass-opt-rps / scenecut-bias=0.05 / no-opt-cu-delta-qp / no-aq-motion / no-hdr

Default : Yes

Forced : No

Audio

ID : 2

Format : AAC

Format/Info : Advanced Audio Codec

Format profile : HE-AAC / LC

Codec ID : A_AAC

Duration : 1 h 10 min

Bit rate : 218 kb/s

Channel(s) : 6 channels

Channel positions : Front: L C R, Side: L R, LFE

Sampling rate : 48.0 kHz / 24.0 kHz

Frame rate : 23.438 FPS (1024 spf)

Compression mode : Lossy

Delay relative to video : 31 ms

Stream size : 110 MiB (5%)

Language : English

Default : No

Forced : No

Subtitle #1

ID : 3

Format : UTF-8

Codec ID : S_TEXT/UTF8

Codec ID/Info : UTF-8 Plain Text

Duration : 1 h 5 min

Bit rate : 66 b/s

Count of elements : 1148

Stream size : 32.1 KiB (0%)

Language : English

Default : No

Forced : No

Subtitle #2

ID : 4

Format : UTF-8

Codec ID : S_TEXT/UTF8

Codec ID/Info : UTF-8 Plain Text

Duration : 1 h 9 min

Bit rate : 56 b/s

Count of elements : 1046

Stream size : 29.1 KiB (0%)

Language : French

Default : No

Forced : No

Subtitle #3

ID : 5

Format : UTF-8

Codec ID : S_TEXT/UTF8

Codec ID/Info : UTF-8 Plain Text

Duration : 1 h 9 min

Bit rate : 57 b/s

Count of elements : 1072

Stream size : 29.4 KiB (0%)

Language : German

Default : No

Forced : No

Subtitle #4

ID : 6

Format : UTF-8

Codec ID : S_TEXT/UTF8

Codec ID/Info : UTF-8 Plain Text

Duration : 1 h 5 min

Bit rate : 57 b/s

Count of elements : 1067

Stream size : 27.8 KiB (0%)

Language : Spanish

Default : No

Forced : No

Girlfriends.Day.2017.2160p.NF.WEBRip.DD5.1.x264-TrollUHD.mkv (5906284433 GBs)efe287541834222.jpg52d1b5541834224.jpg34a9f5541834227.jpg40acf5541834229.jpg

Download torrent

Clinical (2017) (4K 2160p WEBRip x265 HEVC 10bit AAC 5.1 Joy) [UTR] torrent

Description

gv8mpWw.pngMedia Info

General

Format : Matroska

Format version : Version 4 / Version 2

File size : 2.33 GiB

Duration : 1 h 44 min

Overall bit rate : 3 200 kb/s

Encoded date : UTC 2017-03-25 10:37:29

Writing application : mkvmerge v9.6.0 (‘Slave To Your Mind’) 64bit

Writing library : libebml v1.3.4 + libmatroska v1.4.5

Video

ID : 1

Format : HEVC

Format/Info : High Efficiency Video Coding

Format profile : Main [email protected]/* */@Main

Codec ID : V_MPEGH/ISO/HEVC

Duration : 1 h 44 min

Bit rate : 3 010 kb/s

Width : 3 840 pixels

Height : 1 600 pixels

Display aspect ratio : 2.40:1

Frame rate mode : Constant

Frame rate : 23.976 (24000/1001) FPS

Color space : YUV

Chroma subsampling : 4:2:0

Bit depth : 10 bits

Bits/(Pixel*Frame) : 0.020

Stream size : 2.19 GiB (94%)

Writing library : x265 2.2+35-fe2f2dd96f8c:[Windows][GCC 6.3.0][64 bit] 10bit

Encoding settings : cpuid=1173503 / frame-threads=3 / numa-pools=8 / wpp / no-pmode / no-pme / no-psnr / no-ssim / log-level=2 / input-csp=1 / input-res=3840×1600 / interlace=0 / total-frames=149681 / level-idc=0 / high-tier=1 / uhd-bd=0 / ref=3 / no-allow-non-conformance / no-repeat-headers / annexb / no-aud / no-hrd / info / hash=0 / no-temporal-layers / open-gop / min-keyint=23 / keyint=250 / bframes=4 / b-adapt=2 / b-pyramid / bframe-bias=0 / rc-lookahead=20 / lookahead-slices=8 / scenecut=40 / no-intra-refresh / ctu=64 / min-cu-size=8 / no-rect / no-amp / max-tu-size=32 / tu-inter-depth=1 / tu-intra-depth=1 / limit-tu=0 / rdoq-level=0 / dynamic-rd=0.00 / signhide / no-tskip / nr-intra=50 / nr-inter=50 / no-constrained-intra / strong-intra-smoothing / max-merge=2 / limit-refs=3 / no-limit-modes / me=1 / subme=2 / merange=57 / temporal-mvp / weightp / no-weightb / no-analyze-src-pics / deblock=0:0 / no-sao / no-sao-non-deblock / rd=5 / early-skip / rskip / fast-intra / no-tskip-fast / no-cu-lossless / no-b-intra / rdpenalty=0 / psy-rd=0.30 / psy-rdoq=0.00 / no-rd-refine / analysis-mode=0 / no-lossless / cbqpoffs=0 / crqpoffs=0 / rc=abr / bitrate=3010 / qcomp=0.60 / qpstep=4 / stats-write=0 / stats-read=2 / cplxblur=20.0 / qblur=0.5 / ipratio=1.40 / pbratio=1.30 / aq-mode=3 / aq-strength=1.00 / cutree / zone-count=0 / no-strict-cbr / qg-size=32 / no-rc-grain / qpmax=69 / qpmin=0 / sar=0 / overscan=0 / videoformat=5 / range=0 / colorprim=2 / transfer=2 / colormatrix=2 / chromaloc=0 / display-window=0 / max-cll=0,0 / min-luma=0 / max-luma=1023 / log2-max-poc-lsb=8 / vui-timing-info / vui-hrd-info / slices=1 / opt-qp-pps / opt-ref-list-length-pps / no-multi-pass-opt-rps / scenecut-bias=0.05 / no-opt-cu-delta-qp / no-aq-motion / no-hdr

Default : Yes

Forced : No

Audio

ID : 2

Format : AAC

Format/Info : Advanced Audio Codec

Format profile : HE-AAC / LC

Codec ID : A_AAC

Duration : 1 h 44 min

Bit rate : 187 kb/s

Channel(s) : 6 channels

Channel positions : Front: L C R, Side: L R, LFE

Sampling rate : 48.0 kHz / 24.0 kHz

Frame rate : 23.438 FPS (1024 spf)

Compression mode : Lossy

Delay relative to video : 31 ms

Stream size : 139 MiB (6%)

Language : English

Default : No

Forced : No

Subtitle #1

ID : 3

Format : UTF-8

Codec ID : S_TEXT/UTF8

Codec ID/Info : UTF-8 Plain Text

Duration : 1 h 36 min

Bit rate : 41 b/s

Count of elements : 1039

Stream size : 29.4 KiB (0%)

Language : English

Default : No

Forced : No

Subtitle #2

ID : 4

Format : UTF-8

Codec ID : S_TEXT/UTF8

Codec ID/Info : UTF-8 Plain Text

Duration : 1 h 41 min

Bit rate : 48 b/s

Count of elements : 1346

Stream size : 36.2 KiB (0%)

Language : English

Default : No

Forced : No

Subtitle #3

ID : 5

Format : UTF-8

Codec ID : S_TEXT/UTF8

Codec ID/Info : UTF-8 Plain Text

Duration : 1 h 43 min

Bit rate : 38 b/s

Count of elements : 1061

Stream size : 29.4 KiB (0%)

Language : French

Default : No

Forced : No

Subtitle #4

ID : 6

Format : UTF-8

Codec ID : S_TEXT/UTF8

Codec ID/Info : UTF-8 Plain Text

Duration : 1 h 43 min

Bit rate : 42 b/s

Count of elements : 1105

Stream size : 32.1 KiB (0%)

Language : German

Default : No

Forced : No

Subtitle #5

ID : 7

Format : UTF-8

Codec ID : S_TEXT/UTF8

Codec ID/Info : UTF-8 Plain Text

Duration : 1 h 43 min

Bit rate : 39 b/s

Count of elements : 1107

Stream size : 29.7 KiB (0%)

Language : Italian

Default : No

Forced : No

Subtitle #6

ID : 8

Format : UTF-8

Codec ID : S_TEXT/UTF8

Codec ID/Info : UTF-8 Plain Text

Duration : 1 h 43 min

Bit rate : 40 b/s

Count of elements : 1108

Stream size : 30.7 KiB (0%)

Language : Spanish

Default : No

Forced : No

bd1992541834204.jpgc141ec541834207.jpg71afb1541834209.jpgfdcff9541834212.jpg

Download torrent

Beauty and the Beast (1991) (1080p BluRay x265 HEVC 10bit Q22 AAC 7.1 Joy) [UTR] torrent

Description

gv8mpWw.pngMedia Info

General

Format : Matroska

Format version : Version 4 / Version 2

File size : 2.76 GiB

Duration : 1 h 31 min

Overall bit rate : 4 302 kb/s

Encoded date : UTC 2017-03-21 02:35:33

Writing application : mkvmerge v9.9.0 (‘Pick Up’) 64bit

Writing library : libebml v1.3.4 + libmatroska v1.4.5

Video

ID : 9

Format : HEVC

Format/Info : High Efficiency Video Coding

Format profile : Main [email protected]/* */@Main

Codec ID : V_MPEGH/ISO/HEVC

Duration : 1 h 31 min

Bit rate : 3 623 kb/s

Width : 1 920 pixels

Height : 1 080 pixels

Display aspect ratio : 16:9

Frame rate mode : Constant

Frame rate : 23.976 (24000/1001) FPS

Color space : YUV

Chroma subsampling : 4:2:0

Bit depth : 10 bits

Bits/(Pixel*Frame) : 0.073

Stream size : 2.32 GiB (84%)

Writing library : x265 2.2+35-fe2f2dd96f8c:[Windows][GCC 6.3.0][64 bit] 10bit

Encoding settings : cpuid=1173503 / frame-threads=3 / numa-pools=8 / wpp / no-pmode / no-pme / no-psnr / no-ssim / log-level=2 / input-csp=1 / input-res=1920×1080 / interlace=0 / total-frames=131985 / level-idc=0 / high-tier=1 / uhd-bd=0 / ref=4 / no-allow-non-conformance / no-repeat-headers / annexb / no-aud / no-hrd / info / hash=0 / no-temporal-layers / open-gop / min-keyint=23 / keyint=250 / bframes=4 / b-adapt=2 / b-pyramid / bframe-bias=0 / rc-lookahead=25 / lookahead-slices=4 / scenecut=40 / no-intra-refresh / ctu=64 / min-cu-size=8 / rect / no-amp / max-tu-size=32 / tu-inter-depth=1 / tu-intra-depth=1 / limit-tu=0 / rdoq-level=2 / dynamic-rd=0.00 / signhide / no-tskip / nr-intra=0 / nr-inter=0 / no-constrained-intra / strong-intra-smoothing / max-merge=3 / limit-refs=3 / limit-modes / me=3 / subme=3 / merange=57 / temporal-mvp / weightp / no-weightb / no-analyze-src-pics / deblock=0:0 / sao / no-sao-non-deblock / rd=5 / early-skip / rskip / fast-intra / no-tskip-fast / no-cu-lossless / no-b-intra / rdpenalty=0 / psy-rd=2.00 / psy-rdoq=1.00 / no-rd-refine / analysis-mode=0 / no-lossless / cbqpoffs=0 / crqpoffs=0 / rc=crf / crf=22.0 / qcomp=0.60 / qpstep=4 / stats-write=0 / stats-read=0 / ipratio=1.40 / pbratio=1.30 / aq-mode=3 / aq-strength=1.00 / cutree / zone-count=0 / no-strict-cbr / qg-size=32 / no-rc-grain / qpmax=69 / qpmin=0 / sar=0 / overscan=0 / videoformat=5 / range=0 / colorprim=2 / transfer=2 / colormatrix=2 / chromaloc=0 / display-window=0 / max-cll=0,0 / min-luma=0 / max-luma=1023 / log2-max-poc-lsb=8 / vui-timing-info / vui-hrd-info / slices=1 / opt-qp-pps / opt-ref-list-length-pps / no-multi-pass-opt-rps / scenecut-bias=0.05 / no-opt-cu-delta-qp / no-aq-motion / no-hdr

Language : English

Default : Yes

Forced : No

Audio #1

ID : 10

Format : AAC

Format/Info : Advanced Audio Codec

Format profile : LC

Codec ID : A_AAC

Duration : 1 h 31 min

Bit rate : 370 kb/s

Channel(s) : 8 channels

Channel positions : Front: L C R, Side: 4, LFE

Sampling rate : 48.0 kHz

Frame rate : 46.875 FPS (1024 spf)

Compression mode : Lossy

Delay relative to video : 20 ms

Stream size : 243 MiB (9%)

Language : English

Default : No

Forced : No

Audio #2

ID : 11

Format : AAC

Format/Info : Advanced Audio Codec

Format profile : HE-AAC / LC

Codec ID : A_AAC

Duration : 1 h 31 min

Bit rate : 88.3 kb/s

Channel(s) : 2 channels

Channel positions : Front: L R

Sampling rate : 48.0 kHz / 24.0 kHz

Frame rate : 23.438 FPS (1024 spf)

Compression mode : Lossy

Delay relative to video : 31 ms

Stream size : 58.0 MiB (2%)

Language : French

Default : No

Forced : No

Audio #3

ID : 12

Format : AAC

Format/Info : Advanced Audio Codec

Format profile : HE-AAC / LC

Codec ID : A_AAC

Duration : 1 h 31 min

Bit rate : 84.9 kb/s

Channel(s) : 2 channels

Channel positions : Front: L R

Sampling rate : 48.0 kHz / 24.0 kHz

Frame rate : 23.438 FPS (1024 spf)

Compression mode : Lossy

Delay relative to video : 31 ms

Stream size : 55.7 MiB (2%)

Language : Spanish

Default : No

Forced : No

Audio #4

ID : 13

Format : AAC

Format/Info : Advanced Audio Codec

Format profile : HE-AAC / LC

Codec ID : A_AAC

Duration : 1 h 31 min

Bit rate : 45.1 kb/s

Channel(s) : 2 channels

Channel positions : Front: L R

Sampling rate : 48.0 kHz / 24.0 kHz

Frame rate : 23.438 FPS (1024 spf)

Compression mode : Lossy

Delay relative to video : 31 ms

Stream size : 29.6 MiB (1%)

Title : Commentary

Language : English

Default : No

Forced : No

Subtitle #1

ID : 1

Format : UTF-8

Codec ID : S_TEXT/UTF8

Codec ID/Info : UTF-8 Plain Text

Duration : 1 h 29 min

Bit rate : 84 b/s

Count of elements : 1148

Stream size : 55.4 KiB (0%)

Language : Arabic

Default : No

Forced : No

Subtitle #2

ID : 2

Format : UTF-8

Codec ID : S_TEXT/UTF8

Codec ID/Info : UTF-8 Plain Text

Duration : 1 h 28 min

Bit rate : 154 b/s

Count of elements : 1232

Stream size : 100 KiB (0%)

Language : Bengali

Default : No

Forced : No

Subtitle #3

ID : 3

Format : UTF-8

Codec ID : S_TEXT/UTF8

Codec ID/Info : UTF-8 Plain Text

Duration : 1 h 30 min

Bit rate : 61 b/s

Count of elements : 1150

Stream size : 40.7 KiB (0%)

Title : Brazillian

Language : Portuguese

Default : No

Forced : No

Subtitle #4

ID : 4

Format : UTF-8

Codec ID : S_TEXT/UTF8

Codec ID/Info : UTF-8 Plain Text

Duration : 1 h 24 min

Bit rate : 61 b/s

Count of elements : 969

Stream size : 37.9 KiB (0%)

Language : Danish

Default : No

Forced : No

Subtitle #5

ID : 5

Format : UTF-8

Codec ID : S_TEXT/UTF8

Codec ID/Info : UTF-8 Plain Text

Duration : 1 h 28 min

Bit rate : 99 b/s

Count of elements : 1234

Stream size : 64.6 KiB (0%)

Language : Persian

Default : No

Forced : No

Subtitle #6

ID : 6

Format : UTF-8

Codec ID : S_TEXT/UTF8

Codec ID/Info : UTF-8 Plain Text

Duration : 1 h 30 min

Bit rate : 61 b/s

Count of elements : 1204

Stream size : 40.3 KiB (0%)

Language : German

Default : No

Forced : No

Subtitle #7

ID : 7

Format : UTF-8

Codec ID : S_TEXT/UTF8

Codec ID/Info : UTF-8 Plain Text

Duration : 1 h 23 min

Bit rate : 65 b/s

Count of elements : 1061

Stream size : 40.3 KiB (0%)

Language : Indonesian

Default : No

Forced : No

Subtitle #8

ID : 8

Format : UTF-8

Codec ID : S_TEXT/UTF8

Codec ID/Info : UTF-8 Plain Text

Duration : 1 h 30 min

Bit rate : 56 b/s

Count of elements : 1250

Stream size : 37.9 KiB (0%)

Language : Romanian

Default : No

Forced : No

Subtitle #9

ID : 14

Format : PGS

Muxing mode : zlib

Codec ID : S_HDMV/PGS

Codec ID/Info : Picture based subtitle format used on BDs/HD-DVDs

Duration : 1 h 25 min

Bit rate : 12.0 kb/s

Count of elements : 2402

Stream size : 7.38 MiB (0%)

Language : English

Default : No

Forced : No

Subtitle #10

ID : 15

Format : PGS

Muxing mode : zlib

Codec ID : S_HDMV/PGS

Codec ID/Info : Picture based subtitle format used on BDs/HD-DVDs

Duration : 1 h 25 min

Bit rate : 11.3 kb/s

Count of elements : 2384

Stream size : 6.91 MiB (0%)

Language : French

Default : No

Forced : No

Subtitle #11

ID : 16

Format : PGS

Muxing mode : zlib

Codec ID : S_HDMV/PGS

Codec ID/Info : Picture based subtitle format used on BDs/HD-DVDs

Duration : 1 h 31 min

Bit rate : 10.4 kb/s

Count of elements : 2408

Stream size : 6.80 MiB (0%)

Language : Spanish

Default : No

Forced : No

Subtitle #12

ID : 17

Format : VobSub

Muxing mode : zlib

Codec ID : S_VOBSUB

Codec ID/Info : Picture based subtitle format used on DVDs

Duration : 1 h 28 min

Bit rate : 7 588 b/s

Count of elements : 1462

Stream size : 4.82 MiB (0%)

Language : English

Default : No

Forced : No

Subtitle #13

ID : 18

Format : VobSub

Muxing mode : zlib

Codec ID : S_VOBSUB

Codec ID/Info : Picture based subtitle format used on DVDs

Duration : 4 s 540 ms

Bit rate : 3 196 b/s

Count of elements : 1

Stream size : 1.77 KiB (0%)

Language : French

Default : No

Forced : No

Subtitle #14

ID : 19

Format : VobSub

Muxing mode : zlib

Codec ID : S_VOBSUB

Codec ID/Info : Picture based subtitle format used on DVDs

Duration : 1 h 28 min

Bit rate : 39 b/s

Count of elements : 5

Stream size : 25.4 KiB (0%)

Language : Spanish

Default : No

Forced : No

Subtitle #15

ID : 20

Format : VobSub

Muxing mode : zlib

Codec ID : S_VOBSUB

Codec ID/Info : Picture based subtitle format used on DVDs

Duration : 1 h 22 min

Bit rate : 2 369 b/s

Count of elements : 398

Stream size : 1.39 MiB (0%)

Language : English

Default : No

Forced : No

Subtitle #16

ID : 21

Format : VobSub

Muxing mode : zlib

Codec ID : S_VOBSUB

Codec ID/Info : Picture based subtitle format used on DVDs

Duration : 1 h 22 min

Bit rate : 2 287 b/s

Count of elements : 398

Stream size : 1.34 MiB (0%)

Language : French

Default : No

Forced : No

Subtitle #17

ID : 22

Format : VobSub

Muxing mode : zlib

Codec ID : S_VOBSUB

Codec ID/Info : Picture based subtitle format used on DVDs

Duration : 1 h 22 min

Bit rate : 1 952 b/s

Count of elements : 395

Stream size : 1.15 MiB (0%)

Language : Spanish

Default : No

Forced : No

Subtitle #18

ID : 23

Format : VobSub

Muxing mode : zlib

Codec ID : S_VOBSUB

Codec ID/Info : Picture based subtitle format used on DVDs

Duration : 1 h 31 min

Bit rate : 16.2 kb/s

Count of elements : 1995

Stream size : 10.5 MiB (0%)

Language : English

Default : No

Forced : No

Subtitle #19

ID : 24

Format : VobSub

Muxing mode : zlib

Codec ID : S_VOBSUB

Codec ID/Info : Picture based subtitle format used on DVDs

Duration : 1 h 31 min

Bit rate : 11.7 kb/s

Count of elements : 1863

Stream size : 7.65 MiB (0%)

Language : French

Default : No

Forced : No

Subtitle #20

ID : 25

Format : VobSub

Muxing mode : zlib

Codec ID : S_VOBSUB

Codec ID/Info : Picture based subtitle format used on DVDs

Duration : 1 h 31 min

Bit rate : 12.7 kb/s

Count of elements : 1863

Stream size : 8.26 MiB (0%)

Language : Spanish

Default : No

Forced : No

Menu

00:00:00.000 : en:Chapter 01

00:03:19.616 : en:Chapter 02

00:08:24.837 : en:Chapter 03

00:13:50.955 : en:Chapter 04

00:17:34.887 : en:Chapter 05

00:20:53.835 : en:Chapter 06

00:25:34.241 : en:Chapter 07

00:27:04.748 : en:Chapter 08

00:34:58.846 : en:Chapter 09

00:38:28.848 : en:Chapter 10

00:43:50.794 : en:Chapter 11

00:49:25.629 : en:Chapter 12

00:51:59.074 : en:Chapter 13

00:53:59.736 : en:Chapter 14

00:57:26.443 : en:Chapter 15

01:03:07.241 : en:Chapter 16

01:09:42.553 : en:Chapter 17

01:11:28.450 : en:Chapter 18

01:14:22.458 : en:Chapter 19

01:17:15.380 : en:Chapter 20

01:21:48.904 : en:Chapter 21

01:25:59.988 : en:Chapter 22

Blu-ray disks in hand0e4056541834186.jpgb98d66541834188.jpg65a561541834189.jpg91ac93541834193.jpg

Download torrent

Beauty and the Beast (1991) (1080p BluRay x265 HEVC 10bit Q18 AAC 7.1 Joy) [UTR] torrent

Description

gv8mpWw.pngMedia Info

General

Format : Matroska

Format version : Version 4 / Version 2

File size : 4.88 GiB

Duration : 1 h 31 min

Overall bit rate : 7 610 kb/s

Encoded date : UTC 2017-03-21 02:26:39

Writing application : mkvmerge v9.9.0 (‘Pick Up’) 64bit

Writing library : libebml v1.3.4 + libmatroska v1.4.5

Video

ID : 9

Format : HEVC

Format/Info : High Efficiency Video Coding

Format profile : Main [email protected]/* */@Main

Codec ID : V_MPEGH/ISO/HEVC

Duration : 1 h 31 min

Bit rate : 6 226 kb/s

Width : 1 920 pixels

Height : 1 080 pixels

Display aspect ratio : 16:9

Frame rate mode : Constant

Frame rate : 23.976 (24000/1001) FPS

Color space : YUV

Chroma subsampling : 4:2:0

Bit depth : 10 bits

Bits/(Pixel*Frame) : 0.125

Stream size : 3.99 GiB (82%)

Writing library : x265 2.2+35-fe2f2dd96f8c:[Windows][GCC 6.3.0][64 bit] 10bit

Encoding settings : cpuid=1173503 / frame-threads=3 / numa-pools=8 / wpp / no-pmode / no-pme / no-psnr / no-ssim / log-level=2 / input-csp=1 / input-res=1920×1080 / interlace=0 / total-frames=131985 / level-idc=0 / high-tier=1 / uhd-bd=0 / ref=4 / no-allow-non-conformance / no-repeat-headers / annexb / no-aud / no-hrd / info / hash=0 / no-temporal-layers / open-gop / min-keyint=23 / keyint=250 / bframes=8 / b-adapt=2 / b-pyramid / bframe-bias=0 / rc-lookahead=80 / lookahead-slices=4 / scenecut=40 / no-intra-refresh / ctu=64 / min-cu-size=8 / rect / amp / max-tu-size=32 / tu-inter-depth=1 / tu-intra-depth=1 / limit-tu=0 / rdoq-level=2 / dynamic-rd=0.00 / signhide / no-tskip / nr-intra=0 / nr-inter=0 / no-constrained-intra / no-strong-intra-smoothing / max-merge=3 / limit-refs=3 / limit-modes / me=3 / subme=3 / merange=57 / temporal-mvp / weightp / no-weightb / no-analyze-src-pics / deblock=-3:-3 / no-sao / no-sao-non-deblock / rd=4 / no-early-skip / no-rskip / no-fast-intra / no-tskip-fast / no-cu-lossless / b-intra / rdpenalty=0 / psy-rd=1.00 / psy-rdoq=5.00 / no-rd-refine / analysis-mode=0 / no-lossless / cbqpoffs=-3 / crqpoffs=-3 / rc=crf / crf=18.0 / qcomp=0.60 / qpstep=4 / stats-write=0 / stats-read=0 / ipratio=1.40 / pbratio=1.30 / aq-mode=2 / aq-strength=1.00 / cutree / zone-count=0 / no-strict-cbr / qg-size=32 / no-rc-grain / qpmax=69 / qpmin=0 / sar=0 / overscan=0 / videoformat=5 / range=0 / colorprim=2 / transfer=2 / colormatrix=2 / chromaloc=0 / display-window=0 / max-cll=0,0 / min-luma=0 / max-luma=1023 / log2-max-poc-lsb=8 / vui-timing-info / vui-hrd-info / slices=1 / opt-qp-pps / opt-ref-list-length-pps / no-multi-pass-opt-rps / scenecut-bias=0.05 / no-opt-cu-delta-qp / no-aq-motion / no-hdr

Language : English

Default : Yes

Forced : No

Audio #1

ID : 10

Format : AAC

Format/Info : Advanced Audio Codec

Format profile : LC

Codec ID : A_AAC

Duration : 1 h 31 min

Bit rate : 847 kb/s

Channel(s) : 8 channels

Channel positions : Front: L C R, Side: 4, LFE

Sampling rate : 48.0 kHz

Frame rate : 46.875 FPS (1024 spf)

Compression mode : Lossy

Delay relative to video : 20 ms

Stream size : 556 MiB (11%)

Language : English

Default : No

Forced : No

Audio #2

ID : 11

Format : AAC

Format/Info : Advanced Audio Codec

Format profile : HE-AAC / LC

Codec ID : A_AAC

Duration : 1 h 31 min

Bit rate : 202 kb/s

Channel(s) : 6 channels

Channel positions : Front: L C R, Side: L R, LFE

Sampling rate : 48.0 kHz / 24.0 kHz

Frame rate : 23.438 FPS (1024 spf)

Compression mode : Lossy

Delay relative to video : 31 ms

Stream size : 133 MiB (3%)

Language : French

Default : No

Forced : No

Audio #3

ID : 12

Format : AAC

Format/Info : Advanced Audio Codec

Format profile : HE-AAC / LC

Codec ID : A_AAC

Duration : 1 h 31 min

Bit rate : 198 kb/s

Channel(s) : 6 channels

Channel positions : Front: L C R, Side: L R, LFE

Sampling rate : 48.0 kHz / 24.0 kHz

Frame rate : 23.438 FPS (1024 spf)

Compression mode : Lossy

Delay relative to video : 31 ms

Stream size : 130 MiB (3%)

Language : Spanish

Default : No

Forced : No

Audio #4

ID : 13

Format : AAC

Format/Info : Advanced Audio Codec

Format profile : HE-AAC / LC

Codec ID : A_AAC

Duration : 1 h 31 min

Bit rate : 45.1 kb/s

Channel(s) : 2 channels

Channel positions : Front: L R

Sampling rate : 48.0 kHz / 24.0 kHz

Frame rate : 23.438 FPS (1024 spf)

Compression mode : Lossy

Delay relative to video : 31 ms

Stream size : 29.6 MiB (1%)

Title : Commentary

Language : English

Default : No

Forced : No

Subtitle #1

ID : 1

Format : UTF-8

Codec ID : S_TEXT/UTF8

Codec ID/Info : UTF-8 Plain Text

Duration : 1 h 29 min

Bit rate : 84 b/s

Count of elements : 1148

Stream size : 55.4 KiB (0%)

Language : Arabic

Default : No

Forced : No

Subtitle #2

ID : 2

Format : UTF-8

Codec ID : S_TEXT/UTF8

Codec ID/Info : UTF-8 Plain Text

Duration : 1 h 28 min

Bit rate : 154 b/s

Count of elements : 1232

Stream size : 100 KiB (0%)

Language : Bengali

Default : No

Forced : No

Subtitle #3

ID : 3

Format : UTF-8

Codec ID : S_TEXT/UTF8

Codec ID/Info : UTF-8 Plain Text

Duration : 1 h 30 min

Bit rate : 61 b/s

Count of elements : 1150

Stream size : 40.7 KiB (0%)

Title : Brazillian

Language : Portuguese

Default : No

Forced : No

Subtitle #4

ID : 4

Format : UTF-8

Codec ID : S_TEXT/UTF8

Codec ID/Info : UTF-8 Plain Text

Duration : 1 h 24 min

Bit rate : 61 b/s

Count of elements : 969

Stream size : 37.9 KiB (0%)

Language : Danish

Default : No

Forced : No

Subtitle #5

ID : 5

Format : UTF-8

Codec ID : S_TEXT/UTF8

Codec ID/Info : UTF-8 Plain Text

Duration : 1 h 28 min

Bit rate : 99 b/s

Count of elements : 1234

Stream size : 64.6 KiB (0%)

Language : Persian

Default : No

Forced : No

Subtitle #6

ID : 6

Format : UTF-8

Codec ID : S_TEXT/UTF8

Codec ID/Info : UTF-8 Plain Text

Duration : 1 h 30 min

Bit rate : 61 b/s

Count of elements : 1204

Stream size : 40.3 KiB (0%)

Language : German

Default : No

Forced : No

Subtitle #7

ID : 7

Format : UTF-8

Codec ID : S_TEXT/UTF8

Codec ID/Info : UTF-8 Plain Text

Duration : 1 h 23 min

Bit rate : 65 b/s

Count of elements : 1061

Stream size : 40.3 KiB (0%)

Language : Indonesian

Default : No

Forced : No

Subtitle #8

ID : 8

Format : UTF-8

Codec ID : S_TEXT/UTF8

Codec ID/Info : UTF-8 Plain Text

Duration : 1 h 30 min

Bit rate : 56 b/s

Count of elements : 1250

Stream size : 37.9 KiB (0%)

Language : Romanian

Default : No

Forced : No

Subtitle #9

ID : 14

Format : PGS

Muxing mode : zlib

Codec ID : S_HDMV/PGS

Codec ID/Info : Picture based subtitle format used on BDs/HD-DVDs

Duration : 1 h 25 min

Bit rate : 12.0 kb/s

Count of elements : 2402

Stream size : 7.38 MiB (0%)

Language : English

Default : No

Forced : No

Subtitle #10

ID : 15

Format : PGS

Muxing mode : zlib

Codec ID : S_HDMV/PGS

Codec ID/Info : Picture based subtitle format used on BDs/HD-DVDs

Duration : 1 h 25 min

Bit rate : 11.3 kb/s

Count of elements : 2384

Stream size : 6.91 MiB (0%)

Language : French

Default : No

Forced : No

Subtitle #11

ID : 16

Format : PGS

Muxing mode : zlib

Codec ID : S_HDMV/PGS

Codec ID/Info : Picture based subtitle format used on BDs/HD-DVDs

Duration : 1 h 31 min

Bit rate : 10.4 kb/s

Count of elements : 2408

Stream size : 6.80 MiB (0%)

Language : Spanish

Default : No

Forced : No

Subtitle #12

ID : 17

Format : VobSub

Muxing mode : zlib

Codec ID : S_VOBSUB

Codec ID/Info : Picture based subtitle format used on DVDs

Duration : 1 h 28 min

Bit rate : 7 588 b/s

Count of elements : 1462

Stream size : 4.82 MiB (0%)

Language : English

Default : No

Forced : No

Subtitle #13

ID : 18

Format : VobSub

Muxing mode : zlib

Codec ID : S_VOBSUB

Codec ID/Info : Picture based subtitle format used on DVDs

Duration : 4 s 540 ms

Bit rate : 3 196 b/s

Count of elements : 1

Stream size : 1.77 KiB (0%)

Language : French

Default : No

Forced : No

Subtitle #14

ID : 19

Format : VobSub

Muxing mode : zlib

Codec ID : S_VOBSUB

Codec ID/Info : Picture based subtitle format used on DVDs

Duration : 1 h 28 min

Bit rate : 39 b/s

Count of elements : 5

Stream size : 25.4 KiB (0%)

Language : Spanish

Default : No

Forced : No

Subtitle #15

ID : 20

Format : VobSub

Muxing mode : zlib

Codec ID : S_VOBSUB

Codec ID/Info : Picture based subtitle format used on DVDs

Duration : 1 h 22 min

Bit rate : 2 369 b/s

Count of elements : 398

Stream size : 1.39 MiB (0%)

Language : English

Default : No

Forced : No

Subtitle #16

ID : 21

Format : VobSub

Muxing mode : zlib

Codec ID : S_VOBSUB

Codec ID/Info : Picture based subtitle format used on DVDs

Duration : 1 h 22 min

Bit rate : 2 287 b/s

Count of elements : 398

Stream size : 1.34 MiB (0%)

Language : French

Default : No

Forced : No

Subtitle #17

ID : 22

Format : VobSub

Muxing mode : zlib

Codec ID : S_VOBSUB

Codec ID/Info : Picture based subtitle format used on DVDs

Duration : 1 h 22 min

Bit rate : 1 952 b/s

Count of elements : 395

Stream size : 1.15 MiB (0%)

Language : Spanish

Default : No

Forced : No

Subtitle #18

ID : 23

Format : VobSub

Muxing mode : zlib

Codec ID : S_VOBSUB

Codec ID/Info : Picture based subtitle format used on DVDs

Duration : 1 h 31 min

Bit rate : 16.2 kb/s

Count of elements : 1995

Stream size : 10.5 MiB (0%)

Language : English

Default : No

Forced : No

Subtitle #19

ID : 24

Format : VobSub

Muxing mode : zlib

Codec ID : S_VOBSUB

Codec ID/Info : Picture based subtitle format used on DVDs

Duration : 1 h 31 min

Bit rate : 11.7 kb/s

Count of elements : 1863

Stream size : 7.65 MiB (0%)

Language : French

Default : No

Forced : No

Subtitle #20

ID : 25

Format : VobSub

Muxing mode : zlib

Codec ID : S_VOBSUB

Codec ID/Info : Picture based subtitle format used on DVDs

Duration : 1 h 31 min

Bit rate : 12.7 kb/s

Count of elements : 1863

Stream size : 8.26 MiB (0%)

Language : Spanish

Default : No

Forced : No

Menu

00:00:00.000 : en:Chapter 01

00:03:19.616 : en:Chapter 02

00:08:24.837 : en:Chapter 03

00:13:50.955 : en:Chapter 04

00:17:34.887 : en:Chapter 05

00:20:53.835 : en:Chapter 06

00:25:34.241 : en:Chapter 07

00:27:04.748 : en:Chapter 08

00:34:58.846 : en:Chapter 09

00:38:28.848 : en:Chapter 10

00:43:50.794 : en:Chapter 11

00:49:25.629 : en:Chapter 12

00:51:59.074 : en:Chapter 13

00:53:59.736 : en:Chapter 14

00:57:26.443 : en:Chapter 15

01:03:07.241 : en:Chapter 16

01:09:42.553 : en:Chapter 17

01:11:28.450 : en:Chapter 18

01:14:22.458 : en:Chapter 19

01:17:15.380 : en:Chapter 20

01:21:48.904 : en:Chapter 21

01:25:59.988 : en:Chapter 22

blu-ray disks in hand97d64b541834173.jpg9f43b2541834174.jpgef3eeb541834177.jpg9739bf541834178.jpg

Download torrent

Beauty and the Beast (1991) (1080p BluRay x265 HEVC 10bit LQ AAC 7.1 Joy) [UTR] torrent

Description

gv8mpWw.pngMedia Info

General

Format : Matroska

Format version : Version 4 / Version 2

File size : 1.32 GiB

Duration : 1 h 31 min

Overall bit rate : 2 060 kb/s

Encoded date : UTC 2017-04-02 20:02:23

Writing application : mkvmerge v9.9.0 (‘Pick Up’) 64bit

Writing library : libebml v1.3.4 + libmatroska v1.4.5

Video

ID : 1

Format : HEVC

Format/Info : High Efficiency Video Coding

Format profile : Main [email protected]/* */@Main

Codec ID : V_MPEGH/ISO/HEVC

Duration : 1 h 31 min

Bit rate : 1 380 kb/s

Width : 1 920 pixels

Height : 1 080 pixels

Display aspect ratio : 16:9

Frame rate mode : Constant

Frame rate : 23.976 (24000/1001) FPS

Color space : YUV

Chroma subsampling : 4:2:0

Bit depth : 10 bits

Bits/(Pixel*Frame) : 0.028

Stream size : 906 MiB (67%)

Writing library : x265 2.2+35-fe2f2dd96f8c:[Windows][GCC 6.3.0][64 bit] 10bit

Encoding settings : cpuid=1173503 / frame-threads=3 / numa-pools=8 / wpp / no-pmode / no-pme / no-psnr / no-ssim / log-level=2 / input-csp=1 / input-res=1920×1080 / interlace=0 / total-frames=131985 / level-idc=0 / high-tier=1 / uhd-bd=0 / ref=3 / no-allow-non-conformance / no-repeat-headers / annexb / no-aud / no-hrd / info / hash=0 / no-temporal-layers / open-gop / min-keyint=23 / keyint=250 / bframes=4 / b-adapt=2 / b-pyramid / bframe-bias=0 / rc-lookahead=20 / lookahead-slices=6 / scenecut=40 / no-intra-refresh / ctu=64 / min-cu-size=8 / rect / no-amp / max-tu-size=32 / tu-inter-depth=1 / tu-intra-depth=1 / limit-tu=0 / rdoq-level=0 / dynamic-rd=0.00 / signhide / no-tskip / nr-intra=50 / nr-inter=50 / no-constrained-intra / strong-intra-smoothing / max-merge=2 / limit-refs=3 / no-limit-modes / me=1 / subme=2 / merange=57 / temporal-mvp / weightp / no-weightb / no-analyze-src-pics / deblock=0:0 / sao / no-sao-non-deblock / rd=5 / early-skip / rskip / no-fast-intra / no-tskip-fast / no-cu-lossless / no-b-intra / rdpenalty=0 / psy-rd=0.30 / psy-rdoq=0.00 / no-rd-refine / analysis-mode=0 / no-lossless / cbqpoffs=0 / crqpoffs=0 / rc=abr / bitrate=1379 / qcomp=0.60 / qpstep=4 / stats-write=0 / stats-read=2 / cplxblur=20.0 / qblur=0.5 / ipratio=1.40 / pbratio=1.30 / aq-mode=3 / aq-strength=1.00 / cutree / zone-count=0 / no-strict-cbr / qg-size=32 / no-rc-grain / qpmax=69 / qpmin=0 / sar=0 / overscan=0 / videoformat=5 / range=0 / colorprim=2 / transfer=2 / colormatrix=2 / chromaloc=0 / display-window=0 / max-cll=0,0 / min-luma=0 / max-luma=1023 / log2-max-poc-lsb=8 / vui-timing-info / vui-hrd-info / slices=1 / opt-qp-pps / opt-ref-list-length-pps / no-multi-pass-opt-rps / scenecut-bias=0.05 / no-opt-cu-delta-qp / no-aq-motion / no-hdr

Language : English

Default : Yes

Forced : No

Audio #1

ID : 2

Format : AAC

Format/Info : Advanced Audio Codec

Format profile : LC

Codec ID : A_AAC

Duration : 1 h 31 min

Bit rate : 370 kb/s

Channel(s) : 8 channels

Channel positions : Front: L C R, Side: 4, LFE

Sampling rate : 48.0 kHz

Frame rate : 46.875 FPS (1024 spf)

Compression mode : Lossy

Delay relative to video : 20 ms

Stream size : 243 MiB (18%)

Language : English

Default : No

Forced : No

Audio #2

ID : 3

Format : AAC

Format/Info : Advanced Audio Codec

Format profile : HE-AAC / LC

Codec ID : A_AAC

Duration : 1 h 31 min

Bit rate : 88.3 kb/s

Channel(s) : 2 channels

Channel positions : Front: L R

Sampling rate : 48.0 kHz / 24.0 kHz

Frame rate : 23.438 FPS (1024 spf)

Compression mode : Lossy

Delay relative to video : 31 ms

Stream size : 58.0 MiB (4%)

Language : French

Default : No

Forced : No

Audio #3

ID : 4

Format : AAC

Format/Info : Advanced Audio Codec

Format profile : HE-AAC / LC

Codec ID : A_AAC

Duration : 1 h 31 min

Bit rate : 84.9 kb/s

Channel(s) : 2 channels

Channel positions : Front: L R

Sampling rate : 48.0 kHz / 24.0 kHz

Frame rate : 23.438 FPS (1024 spf)

Compression mode : Lossy

Delay relative to video : 31 ms

Stream size : 55.7 MiB (4%)

Language : Spanish

Default : No

Forced : No

Audio #4

ID : 5

Format : AAC

Format/Info : Advanced Audio Codec

Format profile : HE-AAC / LC

Codec ID : A_AAC

Duration : 1 h 31 min

Bit rate : 45.1 kb/s

Channel(s) : 2 channels

Channel positions : Front: L R

Sampling rate : 48.0 kHz / 24.0 kHz

Frame rate : 23.438 FPS (1024 spf)

Compression mode : Lossy

Delay relative to video : 31 ms

Stream size : 29.6 MiB (2%)

Title : Commentary

Language : English

Default : No

Forced : No

Subtitle #1

ID : 6

Format : PGS

Muxing mode : zlib

Codec ID : S_HDMV/PGS

Codec ID/Info : Picture based subtitle format used on BDs/HD-DVDs

Duration : 1 h 25 min

Bit rate : 12.0 kb/s

Count of elements : 2402

Stream size : 7.38 MiB (1%)

Language : English

Default : No

Forced : No

Subtitle #2

ID : 7

Format : PGS

Muxing mode : zlib

Codec ID : S_HDMV/PGS

Codec ID/Info : Picture based subtitle format used on BDs/HD-DVDs

Duration : 1 h 25 min

Bit rate : 11.3 kb/s

Count of elements : 2384

Stream size : 6.91 MiB (1%)

Language : French

Default : No

Forced : No

Subtitle #3

ID : 8

Format : PGS

Muxing mode : zlib

Codec ID : S_HDMV/PGS

Codec ID/Info : Picture based subtitle format used on BDs/HD-DVDs

Duration : 1 h 31 min

Bit rate : 10.4 kb/s

Count of elements : 2408

Stream size : 6.80 MiB (1%)

Language : Spanish

Default : No

Forced : No

Subtitle #4

ID : 9

Format : VobSub

Muxing mode : zlib

Codec ID : S_VOBSUB

Codec ID/Info : Picture based subtitle format used on DVDs

Duration : 1 h 28 min

Bit rate : 7 588 b/s

Count of elements : 1462

Stream size : 4.82 MiB (0%)

Language : English

Default : No

Forced : No

Subtitle #5

ID : 10

Format : VobSub

Muxing mode : zlib

Codec ID : S_VOBSUB

Codec ID/Info : Picture based subtitle format used on DVDs

Duration : 4 s 540 ms

Bit rate : 3 196 b/s

Count of elements : 1

Stream size : 1.77 KiB (0%)

Language : French

Default : No

Forced : No

Subtitle #6

ID : 11

Format : VobSub

Muxing mode : zlib

Codec ID : S_VOBSUB

Codec ID/Info : Picture based subtitle format used on DVDs

Duration : 1 h 28 min

Bit rate : 39 b/s

Count of elements : 5

Stream size : 25.4 KiB (0%)

Language : Spanish

Default : No

Forced : No

Subtitle #7

ID : 12

Format : VobSub

Muxing mode : zlib

Codec ID : S_VOBSUB

Codec ID/Info : Picture based subtitle format used on DVDs

Duration : 1 h 22 min

Bit rate : 2 369 b/s

Count of elements : 398

Stream size : 1.39 MiB (0%)

Language : English

Default : No

Forced : No

Subtitle #8

ID : 13

Format : VobSub

Muxing mode : zlib

Codec ID : S_VOBSUB

Codec ID/Info : Picture based subtitle format used on DVDs

Duration : 1 h 22 min

Bit rate : 2 287 b/s

Count of elements : 398

Stream size : 1.34 MiB (0%)

Language : French

Default : No

Forced : No

Subtitle #9

ID : 14

Format : VobSub

Muxing mode : zlib

Codec ID : S_VOBSUB

Codec ID/Info : Picture based subtitle format used on DVDs

Duration : 1 h 22 min

Bit rate : 1 952 b/s

Count of elements : 395

Stream size : 1.15 MiB (0%)

Language : Spanish

Default : No

Forced : No

Subtitle #10

ID : 15

Format : VobSub

Muxing mode : zlib

Codec ID : S_VOBSUB

Codec ID/Info : Picture based subtitle format used on DVDs

Duration : 1 h 31 min

Bit rate : 16.2 kb/s

Count of elements : 1995

Stream size : 10.5 MiB (1%)

Language : English

Default : No

Forced : No

Subtitle #11

ID : 16

Format : VobSub

Muxing mode : zlib

Codec ID : S_VOBSUB

Codec ID/Info : Picture based subtitle format used on DVDs

Duration : 1 h 31 min

Bit rate : 11.7 kb/s

Count of elements : 1863

Stream size : 7.65 MiB (1%)

Language : French

Default : No

Forced : No

Subtitle #12

ID : 17

Format : VobSub

Muxing mode : zlib

Codec ID : S_VOBSUB

Codec ID/Info : Picture based subtitle format used on DVDs

Duration : 1 h 31 min

Bit rate : 12.7 kb/s

Count of elements : 1863

Stream size : 8.26 MiB (1%)

Language : Spanish

Default : No

Forced : No

Subtitle #13

ID : 18

Format : UTF-8

Codec ID : S_TEXT/UTF8

Codec ID/Info : UTF-8 Plain Text

Duration : 1 h 29 min

Bit rate : 84 b/s

Count of elements : 1148

Stream size : 55.4 KiB (0%)

Language : Arabic

Default : No

Forced : No

Subtitle #14

ID : 19

Format : UTF-8

Codec ID : S_TEXT/UTF8

Codec ID/Info : UTF-8 Plain Text

Duration : 1 h 28 min

Bit rate : 154 b/s

Count of elements : 1232

Stream size : 100 KiB (0%)

Language : Bengali

Default : No

Forced : No

Subtitle #15

ID : 20

Format : UTF-8

Codec ID : S_TEXT/UTF8

Codec ID/Info : UTF-8 Plain Text

Duration : 1 h 30 min

Bit rate : 61 b/s

Count of elements : 1150

Stream size : 40.7 KiB (0%)

Title : Brazillian

Language : Portuguese

Default : No

Forced : No

Subtitle #16

ID : 21

Format : UTF-8

Codec ID : S_TEXT/UTF8

Codec ID/Info : UTF-8 Plain Text

Duration : 1 h 24 min

Bit rate : 61 b/s

Count of elements : 969

Stream size : 37.9 KiB (0%)

Language : Danish

Default : No

Forced : No

Subtitle #17

ID : 22

Format : UTF-8

Codec ID : S_TEXT/UTF8

Codec ID/Info : UTF-8 Plain Text

Duration : 1 h 28 min

Bit rate : 99 b/s

Count of elements : 1234

Stream size : 64.6 KiB (0%)

Language : Persian

Default : No

Forced : No

Subtitle #18

ID : 23

Format : UTF-8

Codec ID : S_TEXT/UTF8

Codec ID/Info : UTF-8 Plain Text

Duration : 1 h 30 min

Bit rate : 61 b/s

Count of elements : 1204

Stream size : 40.3 KiB (0%)

Language : German

Default : No

Forced : No

Subtitle #19

ID : 24

Format : UTF-8

Codec ID : S_TEXT/UTF8

Codec ID/Info : UTF-8 Plain Text

Duration : 1 h 23 min

Bit rate : 65 b/s

Count of elements : 1061

Stream size : 40.3 KiB (0%)

Language : Indonesian

Default : No

Forced : No

Subtitle #20

ID : 25

Format : UTF-8

Codec ID : S_TEXT/UTF8

Codec ID/Info : UTF-8 Plain Text

Duration : 1 h 30 min

Bit rate : 56 b/s

Count of elements : 1250

Stream size : 37.9 KiB (0%)

Language : Romanian

Default : No

Forced : No

Subtitle #21

ID : 26

Format : UTF-8

Codec ID : S_TEXT/UTF8

Codec ID/Info : UTF-8 Plain Text

Duration : 1 h 28 min

Bit rate : 154 b/s

Count of elements : 1232

Stream size : 100 KiB (0%)

Language : Bengali

Default : No

Forced : No

Subtitle #22

ID : 27

Format : UTF-8

Codec ID : S_TEXT/UTF8

Codec ID/Info : UTF-8 Plain Text

Duration : 1 h 30 min

Bit rate : 61 b/s

Count of elements : 1150

Stream size : 40.7 KiB (0%)

Language : Portuguese

Default : No

Forced : No

Subtitle #23

ID : 28

Format : UTF-8

Codec ID : S_TEXT/UTF8

Codec ID/Info : UTF-8 Plain Text

Duration : 1 h 24 min

Bit rate : 61 b/s

Count of elements : 969

Stream size : 37.9 KiB (0%)

Language : Danish

Default : No

Forced : No

Subtitle #24

ID : 29

Format : UTF-8

Codec ID : S_TEXT/UTF8

Codec ID/Info : UTF-8 Plain Text

Duration : 1 h 28 min

Bit rate : 66 b/s

Count of elements : 1201

Stream size : 43.0 KiB (0%)

Language : Persian

Default : No

Forced : No

Subtitle #25

ID : 30

Format : UTF-8

Codec ID : S_TEXT/UTF8

Codec ID/Info : UTF-8 Plain Text

Duration : 1 h 30 min

Bit rate : 63 b/s

Count of elements : 1204

Stream size : 41.6 KiB (0%)

Language : German

Default : No

Forced : No

Subtitle #26

ID : 31

Format : UTF-8

Codec ID : S_TEXT/UTF8

Codec ID/Info : UTF-8 Plain Text

Duration : 1 h 23 min

Bit rate : 65 b/s

Count of elements : 1061

Stream size : 40.3 KiB (0%)

Language : Indonesian

Default : No

Forced : No

Subtitle #27

ID : 32

Format : UTF-8

Codec ID : S_TEXT/UTF8

Codec ID/Info : UTF-8 Plain Text

Duration : 1 h 29 min

Bit rate : 62 b/s

Count of elements : 1659

Stream size : 41.0 KiB (0%)

Language : Romanian

Default : No

Forced : No

Subtitle #28

ID : 33

Format : UTF-8

Codec ID : S_TEXT/UTF8

Codec ID/Info : UTF-8 Plain Text

Duration : 1 h 29 min

Bit rate : 84 b/s

Count of elements : 1148

Stream size : 55.4 KiB (0%)

Language : Arabic

Default : No

Forced : No

Menu

00:00:00.000 : en:Chapter 01

00:03:19.616 : en:Chapter 02

00:08:24.837 : en:Chapter 03

00:13:50.955 : en:Chapter 04

00:17:34.887 : en:Chapter 05

00:20:53.835 : en:Chapter 06

00:25:34.241 : en:Chapter 07

00:27:04.748 : en:Chapter 08

00:34:58.846 : en:Chapter 09

00:38:28.848 : en:Chapter 10

00:43:50.794 : en:Chapter 11

00:49:25.629 : en:Chapter 12

00:51:59.074 : en:Chapter 13

00:53:59.736 : en:Chapter 14

00:57:26.443 : en:Chapter 15

01:03:07.241 : en:Chapter 16

01:09:42.553 : en:Chapter 17

01:11:28.450 : en:Chapter 18

01:14:22.458 : en:Chapter 19

01:17:15.380 : en:Chapter 20

01:21:48.904 : en:Chapter 21

01:25:59.988 : en:Chapter 22

Blu-ray disks in hand2d8276541834160.jpg8242df541834161.jpg32ace1541834163.jpgd9abb8541834165.jpg

Download torrent

The.Founder.2016.HDRip.XviD.AC3-iFT[PRiME] torrent

Description

The.Founder.2016.HDRip.XviD.AC3-iFT[PRiME]

ImDb: http://www.imdb.com/title/tt4276820

Complete name : The.Founder.2016.HDRip.XviD.AC3-iFT[PRiME].avi
Format : AVI
Format/Info : Audio Video Interleave
Format profile : OpenDML
Format settings : rec
File size : 1.93 GiB
Duration : 1 h 55 min
Overall bit rate : 2 393 kb/s
Writing application : AVI-Mux GUI 1.17.8.3, Feb 16 201019:42:50

Video
ID : 0
Format : MPEG-4 Visual
Format profile : Advanced [email protected]/* */
Format settings, BVOP : 2
Format settings, QPel : No
Format settings, GMC : No warppoints
Format settings, Matrix : Default (H.263)
Muxing mode : Packed bitstream
Codec ID : XVID
Codec ID/Hint : XviD
Duration : 1 h 55 min
Bit rate : 2 004 kb/s
Width : 720 pixels
Height : 304 pixels
Display aspect ratio : 2.35:1
Frame rate : 23.976 (23976/1000) FPS
Color space : YUV
Chroma subsampling : 4:2:0
Bit depth : 8 bits
Scan type : Progressive
Compression mode : Lossy
Bits/(Pixel*Frame) : 0.382
Stream size : 1.61 GiB (84%)
Writing library : XviD 73

Audio
ID : 1
Format : AC-3
Format/Info : Audio Coding 3
Mode extension : CM (complete main)
Format settings, Endianness : Big
Codec ID : 2000
Duration : 1 h 55 min
Bit rate mode : Constant
Bit rate : 384 kb/s
Channel(s) : 6 channels
Channel positions : Front: L C R, Side: L R, LFE
Sampling rate : 48.0 kHz
Frame rate : 31.250 FPS (1536 spf)
Compression mode : Lossy
Stream size : 317 MiB (16%)
Alignment : Aligned on interleaves
Interleave, duration : 64 ms (1.53 video frames)
Interleave, preload duration : 192 ms
Title : The.track_2

Click Image To View Full Size


Click To View Screenshot
Click To View Screenshot
Click To View Screenshot

Download torrent

Split.2016.720p.WEB-DL.x264.DD5.1-iFT[PRiME] torrent

Description

Split.2016.720p.WEB-DL.x264.DD5.1-iFT[PRiME]

ImDb: http://www.imdb.com/title/tt4972582

Complete name : Split.2016.720p.WEB-DL.x264.DD5.1-iFT[PRiME].mkv
Format : Matroska
Format version : Version 4 / Version 2
File size : 3.55 GiB
Duration : 1 h 57 min
Overall bit rate : 4 335 kb/s
Encoded date : UTC 2017-04-04 16:48:17
Writing application : mkvmerge v9.5.0 (‘Quiet Fire’) 64bit
Writing library : libebml v1.3.4 + libmatroska v1.4.5

Video
ID : 1
Format : AVC
Format/Info : Advanced Video Codec
Format profile : [email protected]/* */
Format settings, CABAC : Yes
Format settings, ReFrames : 8 frames
Codec ID : V_MPEG4/ISO/AVC
Duration : 1 h 57 min
Bit rate : 3 950 kb/s
Width : 1 280 pixels
Height : 528 pixels
Display aspect ratio : 2.40:1
Frame rate mode : Constant
Frame rate : 23.976 (24000/1001) FPS
Color space : YUV
Chroma subsampling : 4:2:0
Bit depth : 8 bits
Scan type : Progressive
Bits/(Pixel*Frame) : 0.244
Stream size : 3.23 GiB (91%)
Writing library : x264 core 142 r2431+42 c69a006 tMod [[email protected]/* */ X86_64]
Encoding settings : cabac=1 / ref=8 / deblock=1:-3:-3 / analyse=0x3:0x133 / me=umh / subme=8 / psy=1 / fade_compensate=0.00 / psy_rd=1.05:1.05 / mixed_ref=1 / me_range=48 / chroma_me=1 / trellis=2 / 8x8dct=1 / cqm=0 / deadzone=21,11 / fast_pskip=0 / chroma_qp_offset=-4 / threads=16 / lookahead_threads=4 / sliced_threads=0 / nr=0 / decimate=0 / interlaced=0 / bluray_compat=0 / constrained_intra=0 / fgo=0 / bframes=4 / b_pyramid=2 / b_adapt=2 / b_bias=0 / direct=3 / weightb=1 / open_gop=0 / weightp=2 / keyint=240 / keyint_min=23 / scenecut=40 / intra_refresh=0 / rc_lookahead=100 / rc=2pass / mbtree=0 / bitrate=3950 / ratetol=1.0 / qcomp=0.60 / qpmin=0:0:0 / qpmax=69:69:69 / qpstep=4 / cplxblur=20.0 / qblur=0.5 / vbv_maxrate=62500 / vbv_bufsize=78125 / nal_hrd=none / filler=0 / ip_ratio=1.30 / pb_ratio=1.20 / aq=1:0.70 / aq-sensitivity=10.00 / aq-factor=1.00:1.00:1.00 / aq2=0 / aq3=0
Default : Yes
Forced : No
Color range : Limited
Color primaries : BT.709
Transfer characteristics : BT.709
Matrix coefficients : BT.709

Audio
ID : 2
Format : AC-3
Format/Info : Audio Coding 3
Mode extension : CM (complete main)
Format settings, Endianness : Big
Codec ID : A_AC3
Duration : 1 h 57 min
Bit rate mode : Constant
Bit rate : 384 kb/s
Channel(s) : 6 channels
Channel positions : Front: L C R, Side: L R, LFE
Sampling rate : 48.0 kHz
Frame rate : 31.250 FPS (1536 spf)
Compression mode : Lossy
Stream size : 322 MiB (9%)
Language : English
Default : Yes
Forced : No

Text
ID : 3
Format : UTF-8
Codec ID : S_TEXT/UTF8
Codec ID/Info : UTF-8 Plain Text
Duration : 1 h 51 min
Bit rate : 47 b/s
Count of elements : 1343
Stream size : 38.5 KiB (0%)
Language : English
Default : Yes
Forced : No

Menu
00:00:00.000 : en:1
00:06:09.452 : en:2
00:14:20.025 : en:3
00:20:50.373 : en:4
00:24:15.536 : en:5
00:28:38.048 : en:6
00:35:48.978 : en:7
00:42:36.385 : en:8
00:49:07.067 : en:9
00:54:10.412 : en:10
01:00:25.495 : en:11
01:06:23.561 : en:12
01:12:32.221 : en:13
01:19:36.770 : en:14
01:25:26.828 : en:15
01:29:17.558 : en:16
01:34:09.224 : en:17
01:40:46.996 : en:18
01:47:41.285 : en:19
01:52:27.738 : en:20

Click Image To View Full Size


Click To View Screenshot
Click To View Screenshot
Click To View Screenshot

Download torrent

24.Weeks.2016.1080p.BluRay.x264-USURY[PRiME] torrent

Description

24.Weeks.2016.1080p.BluRay.x264-USURY[PRiME]

ImDb: http://www.imdb.com/title/tt5369484

Complete name : 24.weeks.2016.1080p.bluray.x264-usury[PRiME].mkv
Format : Matroska
Format version : Version 4 / Version 2
File size : 8.74 GiB
Duration : 1 h 42 min
Overall bit rate : 12.3 Mb/s
Encoded date : UTC 2017-04-04 14:22:45
Writing application : mkvmerge v8.3.0 (‘Over the Horizon’) 64bit
Writing library : libebml v1.3.1 + libmatroska v1.4.2

Video
ID : 1
Format : AVC
Format/Info : Advanced Video Codec
Format profile : [email protected]/* */
Format settings, CABAC : Yes
Format settings, ReFrames : 5 frames
Codec ID : V_MPEG4/ISO/AVC
Duration : 1 h 42 min
Bit rate : 10.8 Mb/s
Width : 1 920 pixels
Height : 808 pixels
Display aspect ratio : 2.40:1
Frame rate mode : Constant
Frame rate : 24.000 FPS
Color space : YUV
Chroma subsampling : 4:2:0
Bit depth : 8 bits
Scan type : Progressive
Bits/(Pixel*Frame) : 0.289
Stream size : 7.66 GiB (88%)
Writing library : x264 core 148 r2744 b97ae06
Encoding settings : cabac=1 / ref=5 / deblock=1:-3:-3 / analyse=0x3:0x133 / me=umh / subme=9 / psy=1 / psy_rd=1.00:0.00 / mixed_ref=1 / me_range=16 / chroma_me=1 / trellis=2 / 8x8dct=1 / cqm=0 / deadzone=21,11 / fast_pskip=0 / chroma_qp_offset=-2 / threads=25 / lookahead_threads=2 / sliced_threads=0 / nr=0 / decimate=1 / interlaced=0 / bluray_compat=0 / constrained_intra=0 / bframes=3 / b_pyramid=2 / b_adapt=1 / b_bias=0 / direct=3 / weightb=1 / open_gop=0 / weightp=2 / keyint=250 / keyint_min=24 / scenecut=40 / intra_refresh=0 / rc_lookahead=50 / rc=2pass / mbtree=1 / bitrate=10751 / ratetol=1.0 / qcomp=0.60 / qpmin=0 / qpmax=69 / qpstep=4 / cplxblur=20.0 / qblur=0.5 / ip_ratio=1.40 / aq=1:1.00
Language : English
Default : Yes
Forced : No

Audio
ID : 2
Format : DTS
Format/Info : Digital Theater Systems
Mode : 16
Format settings, Endianness : Big
Codec ID : A_DTS
Duration : 1 h 42 min
Bit rate mode : Constant
Bit rate : 1 509 kb/s
Channel(s) : 6 channels
Channel positions : Front: L C R, Side: L R, LFE
Sampling rate : 48.0 kHz
Frame rate : 93.750 FPS (512 spf)
Bit depth : 24 bits
Compression mode : Lossy
Stream size : 1.08 GiB (12%)
Language : German
Default : Yes
Forced : No

Text
ID : 3
Format : UTF-8
Codec ID : S_TEXT/UTF8
Codec ID/Info : UTF-8 Plain Text
Duration : 1 h 40 min
Bit rate : 44 b/s
Count of elements : 906
Stream size : 32.6 KiB (0%)
Title : forced
Language : English
Default : Yes
Forced : Yes

Menu
00:00:00.000 : en:00:00:00.000
00:01:12.417 : en:00:01:12.417
00:10:57.708 : en:00:10:57.708
00:20:37.000 : en:00:20:37.000
00:30:17.000 : en:00:30:17.000
00:41:40.542 : en:00:41:40.542
00:55:11.500 : en:00:55:11.500
01:03:59.667 : en:01:03:59.667
01:14:14.875 : en:01:14:14.875
01:22:10.083 : en:01:22:10.083
01:33:19.208 : en:01:33:19.208
01:38:19.750 : en:01:38:19.750

Click Image To View Full Size


Click To View Screenshot
Click To View Screenshot
Click To View Screenshot

Download torrent

Yeman.2017.Tamil.WEBHD.XviD.AC3.Subs.MeN torrent

Description

Yaman (English: Lord of Death) is a 2017 Indian Tamil-language political drama film written and directed by Jeeva Shankar. Co-produced by Lyca Productions and Vijay Antony Film Corporation, the film features Vijay Antony and Mia George in the lead roles, while Thiagarajan portrays another pivotal character. The film, which features Jeeva Shankar and Vijay Antony doubling up as the cinematographer and the music composer respectively, was released alongside its dubbed Telugu version on 24 February 2017.
Political pot boilers are always exciting provided it has a few factors like gripping performances, unpredictable twists and turns, nepotism, intelligent moves, unapologetic treachery, hunger for power, and so on. With Yaman, Jeeva Shankar has tried to tick all the boxes. The erratic political happenings being the flavour of the season, the film has some scenes and unadulterated dialogues which the audience can relate to.
Tamilarasan (Vijay Antony), who lost his parents soon after his birth, is living with his grandfather (Sangili Murugan). The latter has been diagnosed with a disease, for which Tamilarasan is in need of money. He agrees to turn approver for an accident case which he has no connection with, and approaches an unknown person (Swaminathan) for the same. He goes to jail and encounters a local goon who has a fallout with another gangster in town. The two gangsters come to terms under a discussion organised by Karunakaran (Thiagarajan), a shrewd politician and an ex-minister. They decide to finish off Tamilarasan in the latter’s presence, but in an interesting turn of events, Tamil becomes Karunakaran’s trusted man in no time.
Then there’s Thangapandi (Aroul Djody), minister of the ruling party, who shares a strictly ‘political’ relation with Karunakaran. His meeting with Tamil sends him chills down spine as he recollects that it was he himself who killed Nambi (the father character of Tamil, essayed by Vijay), long time ago. Pandi’s aide Thyagu (Charlie) continues to leak the former’s plans to Karunakaran, thanks to their bonding over caste.
Meanwhile, actress Anjana aka Ahalya (Miya George) develops a soft corner for Tamil after meeting each other a few times at unexpected circumstances. She seeks Tamil’s help in nabbing an anonymous pervert who constantly disturbs Ahalya. Tamil, who realises that it is Pandi’s son who has been torturing his lady love, warns the minister, thus rubbing him the wrong way. Karunakaran, too, gets annoyed with Tamil after he realises that the latter’s forsy in politics would be a threat to him. Pandi and Karunakaran now unite to finish off Tamil.
Vijay Antony has once again chosen a script which suits him. That said, an attempt to showcase him as a ‘hero’ at times should have been avoided and let his character behave for itself. His track with Miya George seems unconvincing in a few occasions and look forcefully incorporated into the otherwise decent plot. With a slew of characters, one of the positive factors of Yaman, is its neatly etched characters. Aroul and Thiagarajan, as the clever and unforgiving politicians score brownie points. Charlie, Sangili Murugan, Marimuthu and others are apt for their parts. Overall, a little more pace, doing away a duet song which appears in the second half which makes audience yawn and slight tone down of heroism would have worked wonders.

Directed by Jeeva Shankar
Produced by A. Subaskaran & Fatima Vijay Antony
Written by Jeeva Shankar
Starring Vijay Antony, Mia George, Thiagarajan
Music by Vijay Antony
Cinematography Jeeva Shankar
Edited by Veera Senthil Raj
Production Lyca Productions & Vijay Antony Film Corporation
Release date 24 February 2017
Running time 153 minutes
Country India
Language Tamil

Watch Online / Screenshots

Download torrent

100 Most Amazing Collection of Computer Desktop HD Wallpapers – Set 668 torrent

Description

100 Most Amazing Collection of Computer Desktop HD Wallpapers – Set 668

100 JPG    |    mIX  |  70 Mb

PREVIEW 1

PREVIEW 2

PREVIEW 3

PREVIEW 4

Download torrent

Sensual Erotic Pictures {Pack-94} torrent

Description

30 Pics / jpeg / MIX RES / 2.27 MB

PREVIEW 1

PREVIEW 2

PREVIEW 3

PREVIEW 4

Download torrent

Topless Pictures Of Hot And Sexy Celebrities {Pack-50} torrent

Description

30 Pics / jpeg / MIX RES / 3.06 MB

PREVIEW 1

PREVIEW 2

PREVIEW 3

PREVIEW 4

PREVIEW 5

Download torrent

Beautiful Lake View Wallpapers {Pack-4} torrent

Description

30 Pics / jpeg / 1200×780 – 3648×2736 / 42.2 MB

PREVIEW 1

PREVIEW 2

PREVIEW 3

PREVIEW 4

Download torrent

Amazing Forest Wallpapers torrent

Description

30 Pics / jpeg / 2560×1600 / 46.2 MB

PREVIEW 1

PREVIEW 2

PREVIEW 3

PREVIEW 4

Download torrent

Amazing Fantasy Wallpapers {Pack-21} torrent

Description

30 Pics / jpeg / 1680×1050 / 9.73 MB

PREVIEW 1

PREVIEW 2

PREVIEW 3

PREVIEW 4

Download torrent

Delicious Food Wallpapers {Pack-17} torrent

Description

30 Pics / jpeg / 1024×768 – 3000×2000 / 11.7 MB

PREVIEW 1

PREVIEW 2

PREVIEW 3

PREVIEW 4

Download torrent

Beautiful Girls Wallpapers {Pack-39} torrent

Description

30 Pics / jpeg / 1680×1050 – 4000×2642 / 32.6 MB

PREVIEW 1

PREVIEW 2

PREVIEW 3

PREVIEW 4

Download torrent

The Type Of Girl That Makes You Forget How To Talk torrent

Description

The Type Of Girl That Makes You Forget How To Talk

23 JPG | Mix Resolution | 27mb

Categories: Pic

Image content: FAMILY safe

screenshot_28.png

More Screenshot

SCREEN 1…

SCREEN 2…

SCREEN 3…

SCREEN 4…

PLEASE seed AND enjoy

Trust.Zone – The Most Trusted VPN Service!

Hides your online identity or make money with Trust.Zone Affiliate System.

Download torrent

Justice League 2017 Movies Wallpaper HD Widescreen torrent

Description

Trust.Zone – The Most Trusted VPN Service!

Hides your online identity or make money with Trust.Zone Affiliate System.

Justice League 2017 Movies Wallpaper HD Widescreen

43 JPG | Mix Resolution | 85.4 mb

Categories: Wallpapers

Image content: FAMILY safe

screenshot_23.png

More Screenshot

SCREEN 1…

SCREEN 2…

SCREEN 3…

SCREEN 4…

PLEASE seed AND enjoy

Trust.Zone – The Most Trusted VPN Service!

Hides your online identity or make money with Trust.Zone Affiliate System.

Download torrent

Desktop Wallpapers – World Countries Norway Part 4 torrent

Description

Desktop Wallpapers – World Countries Norway Part 4

24 JPG | 2048×1368 – 5680×3200 | 107 Mb

Categories: Wallpapers

Image content: FAMILY safe

screenshot_25.png

More Screenshot

SCREEN 1…

SCREEN 2…

SCREEN 3…

SCREEN 4…

PLEASE seed AND enjoy

Trust.Zone – The Most Trusted VPN Service!

Hides your online identity or make money with Trust.Zone Affiliate System.

Download torrent

Amanda Seyfried American Actress 2017 Collection torrent

Description

Amanda Seyfried American Actress 2017 Collection

58 JPG | Mix Resolution | 55.4 mb

Categories: Wallpapers

Image content: FAMILY safe

screenshot_24.png

More Screenshot

SCREEN 1…

SCREEN 2…

SCREEN 3…

SCREEN 4…

PLEASE seed AND enjoy

Trust.Zone – The Most Trusted VPN Service!

Hides your online identity or make money with Trust.Zone Affiliate System.

Download torrent

The Logic Model Guidebook_ Better ategies for Great Results torrent

Description

The Logic Model Guidebook: Better Strategies for Great Results

The Logic Model Guidebook offers clear, step-by-step support for creating logic models and the modeling process in a range of contexts. Lisa Wyatt Knowlton and Cynthia C. Phillips describe the structures, processes, and language of logic models as a robust tool to improve the design, development, and implementation of program and organization change efforts. The text is enhanced by numerous visual learning guides (sample models, checklists, exercises, worksheets) and many new case examples. The authors provide students, practitioners, and beginning researchers with practical support to develop and improve models that reflect knowledge, practice, and beliefs. The Guidebook offers a range of new applied examples. The text includes logic models for evaluation, discusses archetypes, and explores display and meaning. In an important contribution to programs and organizations, it emphasizes quality by raising issues like plausibility, feasibility, and strategic choices in model creation

Download torrent

7+ in IELTS Listening All techniques for Academic & General torrent

Description

7+ in IELTS Listening: All techniques for Academic & General
Shine in your next IELTSand confidently answer all the Listening questions. You will understand all you need!

Course Description

Hello and welcome!

In this course you will learn the important IELTS Listening techniques for all the eight different question types across the four parts of the listening module. So, you will be able to manage your time, follow the recording and find all the answers, even if you cannot understand all of the words!

Whether this is your very first IELTSand don’t know where to start your preparation and need a comprehensive training, or if you’ve had number of attempts before and possibly have taken different training courses and read plenty of IELTS books, and still lacking in one or more skills, this course is the right choice for you. I am sure you’ll get the boost you need and will be fully prepared to shine and get the score you have always needed

Download torrent

LazyPammer complete ebook pack torrent

Description

Lazy Programmer
Your source for thein big data, data science, and coding for startups.

Also Udemy creator of for these books

Download torrent

The COMPLETE Crowdfunding Launch Formula For $100k Campaigns torrent

Description

The COMPLETE Crowdfunding Launch Formula For $100k Campaigns
Learn how myself and my students have crowdfunded over $1,000,000. All hands on tips and tools with no BS fluff talk.

Course Description

This course covers the foundation and advanced hacks to pull off a six figure crowdfunding raise.

All lessons are taught via screen share and video. I literally show you all the tools I’ve used, include templates and scripts, and reveal a goldmine of secrets.

You can rip through the course in a day if you watch it end to end but I suggest doing it over the course of 3 to give the material time to digest.

The course can be broken down to 3 main objectives.
1. Research and Prelaunch
2. Building phase of pulling together content and creating digital assets
3. Launch- game time baby!

You should take this course if you don’t want to waste weeks of your life trying to figure out what works. I’ve used this process on dozens of campaigns and others have used this same process (coached by me) to crowdfund their own ideas and products.

What are the requirements?

You’ll need a PC, laptop, or mobile phone to access the materials. Worksheets can be printed if you like

Download torrent

Theory and Reality_ An Introduction to the Philosophy of Science torrent

Description

Theory and Reality: An Introduction to the Philosophy of Science (Science and Its Conceptual Foundations series) 1st Edition

How does science work? Does it tell us what the world is “really” like? What makes it different from other ways of understanding the universe? In Theory and Reality, Peter Godfrey-Smith addresses these questions by taking the reader on a grand tour of one hundred years of debate about science. The result is a completely accessible introduction to the main themes of the philosophy of science.

Series: Science and Its Conceptual Foundations series
Paperback: 272 pages
Publisher: University of Chicago Press; 1st edition (August 1, 2003)
Language: English
ISBN-10: 0226300633
ISBN-13: 978-0226300634

Download torrent

Business Driven Technology, 7th Edition(2017) – True PDF – zeke23 torrent

Description

110721yfe4pc9xc33r4339.png

Business Driven Technology, 7th Edition(2017) – True PDF – zeke23

Publication Date: 2017-03-01 – ISBN-10: 125956732X – 609 pages – True PDF – English

Business Driven Technology 7e provides the ultimate flexibility in tailoring content to the exact needs of your MIS or IT course! Business Driven Technology 7e offers flexibility to customize according to your needs and the course and student needs by covering essential concepts and topics in the five core units, while providing additional in-depth coverage in the business and the technology plug-ins. Plug-ins are fully developed modules of text that include student learning outcomes, case studies, business vignettes, and end-of-chapter material such as key terms, individual and group questions and projects, and case study exercises. Each chapter and plug-in is independent so you can: cover any or all of the chapters as they suit your purpose; cover any or all of the business plug-ins as they suit your purpose; cover any or all of the technology plug-ins as they suit your purpose; and, cover the plug-ins in any order you wish.

Table of Contents

UNIT 1 Achieving Business Success

CHAPTER 1: Business Driven Technology

CHAPTER 2: Identifying Competitive Advantages

CHAPTER 3: Strategic Initiatives for Implementing Competitive Advantages

CHAPTER 4: Measuring the Success of Strategic Initiatives

CHAPTER 5: Organizational Structures That Support Strategic Initiatives

UNIT 2 Exploring Business Intelligence

CHAPTER 6: Valuing and Storing Organizational Information—Databases

CHAPTER 7: Accessing Organizational Information—Data Warehouses

CHAPTER 8: Understanding Big Data and Its Impact on Business

UNIT 3 Streamlining Business Operations

CHAPTER 9: Enabling the Organization—Decision Making

CHAPTER 10: Extending the Organization—Supply Chain Management

CHAPTER 11: Building a Customer-centric Organization—Customer Relationship Management

CHAPTER 12: Integrating the Organization from End to End—Enterprise Resource Planning

UNIT 4 Building Innovation

CHAPTER 13: Creating Innovative Organizations

CHAPTER 14: Ebusiness

CHAPTER 15: Creating Collaborative Partnerships

CHAPTER 16: Integrating Wireless Technology in Business

UNIT 5 Transforming Organizations

CHAPTER 17: Developing Software to Streamline Operations

CHAPTER 18: Methodologies for Supporting Agile Organizations

CHAPTER 19: Managing Organizational Projects

Download torrent

M: Information Systems, 4th Edition by Paige Baltzan(2017) – True PDF – zeke23 torrent

Description

51b-JSJPiDL._SX412_BO1,204,203,200_.jpg

M: Information Systems, 4th Edition by Paige Baltzan(2017) – True PDF – zeke23

Publication Date: 2017-03-01 – ISBN-10: 1259814297 – 306 pages – True PDF – English

M: Information Systems is a visual, magazine format designed to engage your students from the start! Saturated with fascinating, sometimes hard-to-believe real examples will keep them reading throughout the course. Baltzan’s approach discusses various business initiatives first and how technology supports those initiatives second. The premise for this unique approach is that business initiatives drive technology choices in a corporation. Therefore, every discussion addresses the business needs first and addresses the technology that supports those needs second. This approach takes the difficult and often intangible MIS concepts, brings them down to the student’s level, and applies them using a hands-on approach to reinforce the concepts. A derivative of the Baltzan; Business Driven Technology version, this M: Information Systems provides the foundation that will enable students to achieve excellence in business, whether they major in operations management, manufacturing, sales, marketing, etc. M: Information Systems is designed to give students the ability to understand how information technology can be a point of strength in an organization.

Table of Contents

Chapter 1 Management Information Systems: Business Driven MIS

Chapter 2 Decisions + Processes: Value Driven Business

Chapter 3 ebusiness: electronic business value

Chapter 4 ethics + information security: MIS business concerns

Chapter 5 Infrastructures: Sustainable technologies

Chapter 6 Data: Business intelligence

Chapter 7 Networks: Mobile Business

Chapter 8 Enterprise Applications: Business Communications

Chapter 9 Systems Development and Project Management: Corporate Responsibility

About the Author

Paige Baltzan teaches in the Department of Information Technology and Electronic Commerce at the Daniels College of Business at the University of Denver. She holds a B.S.B.A. specializing in Accounting/MIS from Bowling Green State University and an M.B.A. specializing in MIS from the University of Denver. Paige also teaches online at Strayer University. She is the co-author of several books, including Business Driven Technology, Essentials of Business Driven Information Systems, I-Series, and a contributor to Management Information Systems for the Information Age. Before joining the Daniels College faculty in 1999, Paige spent several years working for a large telecommunications company and an international consulting firm where she participated in client engagements in the United States, as well as South America and Europe. Paige lives in Lakewood, Colorado, with her husband, Tony, and daughters, Hannah and Sophie.

Download torrent